Поиск

2017 Irène Schweizer & Joey Baron - Live! {Intakt 293} [24-48]

2017 Irène Schweizer & Joey Baron - Live! {Intakt 293} [24-48]
Дата записи диска:
27 ноября 2015
Место записи:
unerhört!-Festival Rote Fabrik, Zürich, Switzerland
Дата издания диска:
15 сентября 2017
Издатель (лейбл):
Номер по каталогу:
293
Носитель:
WEB
Формат:
PCM
Тип рипа:
tracks+.cue
Контейнер:
APE (*.ape)
Количество каналов:
2.0
Разрядность/ЧД:
24/48
Битрейт аудио:
lossless
Время звучания:
00:50:54
Наличие сканов:
web
Страна-производитель диска (релиза):
Switzerland
Релизёр (источник):
M0p94ok
Доп. инфо:

15 место в списке лучших джазовых альбомов года "The New York Times"

Встреча двух джазовых гигантов: в 2015 году Джои Барон, один из самых востребованных барабанщиков на нью-йоркской сцене, встретился на концерте в Цюрихе с первой леди европейского джаза, швейцарской пианисткой Ирен Швейцер. За свою долгую карьеру Барон играл с такими группами, как Naked City и Masada, а также работал с музыкантами Диззи Гиллеспи, Четом Бейкером, Джо Ловано, Биллом Фризеллом и Марком Рибо.

Швейцер уже выступал и записывался с лучшими барабанщиками планеты: Пьером Фавром, Ханом Беннинком, Луи Мохоло-Мохоло, Гюнтером «Бэби» Соммером, Эндрю Сириллом и Хамидом Дрейком.

Выступление этих двоих было одним из ярких моментов фестиваля Unerhört в Цюрихе, 2015. В их встрече было все, на что вы могли надеяться: энергия, драйв и завораживающий обмен мнениями в сочетании с волшебными мелодиями, которыми славится Швейцер. «Эта красивая запись документирует чудесный вечер в Цюрихе», - пишет Джон Корбетт на обложке.

Лог проверки качества
foobar2000 1.6.2 / Dynamic Range Meter 1.1.1
log date: 2021-01-07 23:27:48

--------------------------------------------------------------------------------
Analyzed: Irène Schweizer, Joey Baron / Live!
--------------------------------------------------------------------------------

DR         Peak         RMS     Duration Track
--------------------------------------------------------------------------------
DR13      -0.30 dB   -16.95 dB      7:59 01-Free for All
DR15      -0.30 dB   -19.24 dB     12:22 02-Up the Ladder
DR21      -0.99 dB   -27.25 dB      7:59 03-Stringfever
DR14      -0.26 dB   -17.42 dB     10:49 04-Jungle Beats II
DR14      -0.31 dB   -17.27 dB      4:15 05-Saturdays
DR13      -0.25 dB   -15.74 dB      3:34 06-Blues for Crelier
DR16      -0.31 dB   -20.74 dB      3:57 07-The Open Window
--------------------------------------------------------------------------------

Number of tracks:  7
Official DR value: DR15

Samplerate:        48000 Hz
Channels:          2
Bits per sample:   24
Bitrate:           1576 kbps
Codec:             FLAC
================================================================================
No seeders - write personal message to M0p94ok. Any questions - support@pro-jazz.com.
Нет сидеров - пишите в личку M0p94ok. Есть вопросы - support@pro-jazz.com
00:47
208
Нет комментариев. Ваш будет первым!