Поиск

2013 Wawau Adler - Expressions {Chaos} [24-44,1]

2013 Wawau Adler - Expressions {Chaos} [24-44,1]
Дата издания диска:
19 июля 2013
Носитель:
WEB
Формат:
PCM
Тип рипа:
tracks+.cue
Контейнер:
APE (*.ape)
Количество каналов:
2.0
Разрядность/ЧД:
24/44,1
Битрейт аудио:
lossless
Время звучания:
00:59:52
Наличие сканов:
web
Страна-производитель диска (релиза):
Germany
Релизёр (источник):
M0p94ok
Лог проверки качества
foobar2000 1.6.2 / Dynamic Range Meter 1.1.1
log date: 2021-01-08 16:05:11

--------------------------------------------------------------------------------
Analyzed: Wawau Adler / Expressions
--------------------------------------------------------------------------------

DR         Peak         RMS     Duration Track
--------------------------------------------------------------------------------
DR11      -0.20 dB   -13.25 dB      3:48 01-Limehouse Blues
DR12      -0.20 dB   -14.27 dB      3:12 02-For Leo
DR12      -0.20 dB   -14.61 dB      4:28 03-More
DR12      -0.20 dB   -14.88 dB      4:49 04-Mélodie au Crépuscule
DR13      -0.20 dB   -15.78 dB      5:32 05-What Are You Doing the Rest of Your Life
DR11      -0.20 dB   -12.53 dB      4:22 06-Pent-Up House
DR14      -0.20 dB   -16.10 dB      5:47 07-Estate
DR10      -0.20 dB   -11.65 dB      4:08 08-Belleville
DR11      -0.20 dB   -12.44 dB      3:39 09-Place du Tertre
DR13      -0.20 dB   -14.83 dB      4:56 10-Ballade Irlandaise
DR11      -0.20 dB   -13.13 dB      4:28 11-Minor Swing
DR13      -0.20 dB   -15.45 dB      6:45 12-In a Sentimental Mood
DR11      -0.20 dB   -13.24 dB      4:06 13-Fleche d'Or
--------------------------------------------------------------------------------

Number of tracks:  13
Official DR value: DR12

Samplerate:        44100 Hz
Channels:          2
Bits per sample:   24
Bitrate:           1472 kbps
Codec:             FLAC
================================================================================
No seeders - write personal message to M0p94ok. Any questions - support@pro-jazz.com.
Нет сидеров - пишите в личку M0p94ok. Есть вопросы - support@pro-jazz.com
17:18
163
Нет комментариев. Ваш будет первым!