Вы используете незарегистрированную версию компонента "Вкладки"!

Поиск

2020 Waldemar 4 - The Buoy and the Sea {AMP Music} [24-96]

2020 Waldemar 4 - The Buoy and the Sea {AMP Music} [24-96]
Стили:
Дата издания диска:
8 февраля 2020
Номер по каталогу:
AT062
Страна-производитель диска (релиза):
Norway
Доп. инфо:

• Формат записи | Источник записи: [TR24][OF]
• Наличие водяных знаков: Нет
• Год издания релиза: 2020
• Лейбл: AMP Music & Records
• Продолжительность: 00:46:35
• Источник: internet
• WEB релиз: ссылка
• Контейнер: FLAC (*.flac)
• Тип рипа: tracks
• Разрядность: 24/96
• Формат: PCM
• Количество каналов: 2.0
• Наличие сканов: front

Лог проверки качества
foobar2000 1.4.2 / Dynamic Range Meter 1.1.1
log date: 2020-02-10 21:43:46

--------------------------------------------------------------------------------
Analyzed: Waldemar 4 / The Buoy and the Sea
--------------------------------------------------------------------------------

DR         Peak         RMS     Duration Track
--------------------------------------------------------------------------------
DR10      -0.92 dB   -13.86 dB      7:34 01-Gary X
DR12      -0.92 dB   -16.10 dB      4:25 02-The Buoy and the Sea
DR9       -0.92 dB   -12.32 dB      6:11 03-Vollabakken
DR12      -0.92 dB   -16.43 dB      8:18 04-Dolphiné
DR10      -0.92 dB   -13.00 dB      5:24 05-Funambulistics
DR12      -0.92 dB   -15.04 dB      5:42 06-Bokfinken
DR9       -0.92 dB   -12.54 dB      3:40 07-Ved elvebredden
DR12      -0.92 dB   -15.11 dB      5:21 08-Eventyrskogen
--------------------------------------------------------------------------------

Number of tracks:  8
Official DR value: DR11

Samplerate:        96000 Hz
Channels:          2
Bits per sample:   24
Bitrate:           2860 kbps
Codec:             FLAC
================================================================================
Any questions - support@pro-jazz.com. Есть вопросы - support@pro-jazz.com
12:36
296
Нет комментариев. Ваш будет первым!