Вы используете незарегистрированную версию компонента "Вкладки"!

Поиск

2019 Yazz Ahmed - Polyhymnia {Ropeadope} [24-48]

2019 Yazz Ahmed - Polyhymnia {Ropeadope} [24-48]
Издатель (лейбл):
Доп. инфо:

• Формат записи | Источник записи: [TR24][OF]
• Наличие водяных знаков: Нет
• Страна: UK
• Год издания релиза: 2019
• Продолжительность: 00:56:57
• Источник: internet
• WEB релиз: ссылка
• Контейнер: FLAC (*.flac)
• Тип рипа: tracks
• Разрядность: 24/48
• Формат: PCM
• Количество каналов: 2.0
• Наличие сканов: front

Лог проверки качества
foobar2000 1.4.2 / Dynamic Range Meter 1.1.1
log date: 2020-02-10 21:19:56

--------------------------------------------------------------------------------
Analyzed: Yazz Ahmed / Polyhymnia
--------------------------------------------------------------------------------

DR         Peak         RMS     Duration Track
--------------------------------------------------------------------------------
DR10      -1.00 dB   -13.00 dB      9:57 01-Lahan al-Mansour
DR9       -0.72 dB   -11.52 dB      9:42 02-Ruby Bridges
DR9       -1.00 dB   -13.43 dB      9:32 03-One Girl Among Many
DR9       -1.00 dB   -12.50 dB      8:30 04-2857
DR9       -1.00 dB   -12.40 dB      8:53 05-Deeds Not Words
DR9       -1.01 dB   -12.60 dB     10:25 06-Barbara
--------------------------------------------------------------------------------

Number of tracks:  6
Official DR value: DR9

Samplerate:        48000 Hz
Channels:          2
Bits per sample:   24
Bitrate:           1542 kbps
Codec:             FLAC
================================================================================
Any questions - support@pro-jazz.com. Есть вопросы - support@pro-jazz.com
11:50
311
Нет комментариев. Ваш будет первым!