Вы используете незарегистрированную версию компонента "Вкладки"!

Поиск

2020 VA - Jazz For Valentines {RevOla} [24-96]

2020 VA - Jazz For Valentines {RevOla} [24-96]
Издатель (лейбл):
Доп. инфо:

Формат записи/Источник записи: [TR24][OF]
Наличие водяных знаков: Нет
Год издания: 2020
Издатель (лейбл): RevOla
Продолжительность: 01:20:56
Наличие сканов в содержимом раздачи: Только обложка альбома
Контейнер: FLAC (*.flac)
Тип рипа: tracks
Разрядность: 24/96
Формат: PCM
Количество каналов: 2.0
Источник (релизер): qobuz.com

Лог проверки качества
foobar2000 1.4.8 / Dynamic Range Meter 1.1.1
log date: 2020-02-10 21:07:56

--------------------------------------------------------------------------------
Analyzed: Alex North / Jazz For Valentines (1)
          Bill Evans Trio / Jazz For Valentines (2)
          Bobby Scott / Jazz For Valentines (3)
          Carole Creveling / Jazz For Valentines (4)
          Chet Baker / Jazz For Valentines (5-6)
          Dean Martin / Jazz For Valentines (7)
          Dorothy Ashby / Jazz For Valentines (8)
          Douglas Duke / Jazz For Valentines (9)
          Helen Merril / Jazz For Valentines (10)
          Helen Merrill / Jazz For Valentines (11-12)
          Ilene Woods / Jazz For Valentines (13-14)
          Jack Lemon / Jazz For Valentines (15)
          Johnny Smith Trio / Jazz For Valentines (16-18)
          Julie London / Jazz For Valentines (19)
          Raymond Scott / Jazz For Valentines (20)
          Russ Garcia and His Orchestra / Jazz For Valentines (21)
          Sammy Davis, Jr. / Jazz For Valentines (22)
          The Bill Smith Quartet / Jazz For Valentines (23)
          The Paul Smith Quartet / Jazz For Valentines (24)
          Yusef Lateef / Jazz For Valentines (25)
--------------------------------------------------------------------------------

DR         Peak         RMS     Duration Track
--------------------------------------------------------------------------------
DR11      -7.35 dB   -21.33 dB      2:50 10-Spartacus Love Theme (Remastered)
DR14      -2.60 dB   -23.25 dB      6:41 08-Peace Piece (Remastered)
DR13      -4.44 dB   -23.84 dB      4:18 05-Somewhere (Remastered)
DR13      -6.63 dB   -23.75 dB      5:09 09-Star Eyes (Remastered)
DR7       -5.76 dB   -15.64 dB      2:18 01-My Funny Valentine (Remastered)
DR12      -1.34 dB   -15.05 dB      2:23 16-Like Someone In Love (Remastered)
DR12      -7.22 dB   -21.46 dB      2:40 06-I Can't Give You Anything But Love (Remastered)
DR10      -7.17 dB   -21.39 dB      2:50 17-Stellla By Starlight (Remastered)
DR12      -8.53 dB   -23.16 dB      2:28 23-I've Got You Under My Skin (Remastered)
DR11      -0.21 dB   -14.25 dB      3:53 04-Falling In Love With Love (Remastered)
DR8       -1.24 dB   -11.31 dB      3:03 18-Night And Day (Remastered)
DR7       -1.56 dB   -12.04 dB      3:29 24-These Foolish Things (Remastered)
DR11      -1.89 dB   -16.74 dB      3:16 13-Everytime (Remastered)
DR11      -1.50 dB   -16.09 dB      2:34 25-It's Late (Remastered)
DR14      -7.64 dB   -26.06 dB      2:44 21-Let's Fall In Love (Remastered)
DR11      -7.67 dB   -21.77 dB      2:45 02-When I Fall In Love (Remastered)
DR10      -8.14 dB   -22.83 dB      2:32 11-Black Is The Colour (Of My True Love's Hair) (Remastered)
DR10      -6.95 dB   -20.56 dB      2:53 15-Isn’t It Romantic? (Remastered)
DR12      -1.23 dB   -16.21 dB      2:55 22-Cry Me A River (Remastered)
DR13       0.00 dB   -15.04 dB      2:23 12-Tico-Tico (Remastered)
DR12      -4.32 dB   -22.15 dB      2:55 19-Prelude To A Kiss (Remastered)
DR10      -2.75 dB   -15.56 dB      2:17 03-You Do Something To Me (Remastered)
DR12      -5.97 dB   -21.62 dB      5:02 20-Greensleeves (Remastered)
DR17      -1.47 dB   -21.66 dB      2:47 14-Edelweiss (Remastered)
DR13       0.00 dB   -14.72 dB      4:03 07-Passion (Remastered)
--------------------------------------------------------------------------------

Number of tracks:  25
Official DR value: DR11
Samplerate:        96000 Hz
Channels:          2
Bits per sample:   24
Bitrate:           1446 kbps
Codec:             FLAC
================================================================================
Any questions - support@pro-jazz.com. Есть вопросы - support@pro-jazz.com
10:38
321
Нет комментариев. Ваш будет первым!