Вы используете незарегистрированную версию компонента "Вкладки"!

Поиск

2019 gorgeous! - imperfection {Ropeadope} [24-44,1]

2019 gorgeous! - imperfection {Ropeadope} [24-44,1]
Дата издания диска:
5 апреля 2019
Издатель (лейбл):
Доп. инфо:

• Формат записи | Источник записи: [TR24][OF]
• Наличие водяных знаков: Нет
• Год издания релиза: 2019
• Продолжительность: 01:38:41
• Источник: internet
• WEB релиз: ссылка
• Контейнер: FLAC (*.flac)
• Тип рипа: tracks
• Разрядность: 24/44,1
• Формат: PCM
• Количество каналов: 2.0
• Наличие сканов: front

Лог проверки качества
foobar2000 1.4.2 / Dynamic Range Meter 1.1.1
log date: 2020-02-10 20:29:33

--------------------------------------------------------------------------------
Analyzed: gorgeous! / imperfection
--------------------------------------------------------------------------------

DR         Peak         RMS     Duration Track
--------------------------------------------------------------------------------
DR12      -0.10 dB   -13.74 dB      7:46 01-alignment
DR11      -0.10 dB   -13.74 dB      3:30 02-evening
DR10      -0.10 dB   -12.39 dB     11:25 03-there it is
DR9       -0.10 dB   -11.55 dB      1:49 04-open open open
DR10      -0.10 dB   -11.59 dB      6:59 05-rainbow groove
DR12      -0.10 dB   -14.60 dB      3:43 06-slight realignment
DR10      -0.10 dB   -11.25 dB     10:30 07-miami knight ride
DR11      -0.10 dB   -12.83 dB      2:01 08-the purple gloved love one
DR13      -0.10 dB   -14.80 dB      6:05 09-weirdos
DR11      -0.10 dB   -13.07 dB      5:23 10-i used to be a human being
DR12      -0.10 dB   -13.00 dB      6:36 11-bubbles
DR12      -0.10 dB   -14.71 dB     11:32 12-kurt marshall jackson
DR10      -0.10 dB   -12.75 dB      9:03 13-maxin'
DR14      -0.10 dB   -15.75 dB      1:12 14-cozy
DR8       -0.10 dB   -11.21 dB      5:57 15-space cadets
DR13      -0.10 dB   -15.51 dB      5:11 16-detachment
--------------------------------------------------------------------------------

Number of tracks:  16
Official DR value: DR11

Samplerate:        44100 Hz
Channels:          2
Bits per sample:   24
Bitrate:           1410 kbps
Codec:             FLAC
================================================================================
Any questions - support@pro-jazz.com. Есть вопросы - support@pro-jazz.com
00:59
296
Нет комментариев. Ваш будет первым!