Вы используете незарегистрированную версию компонента "Вкладки"!

Поиск

2019 Tim Ries - Life Changes {Ropeadope} [24-96]

2019 Tim Ries - Life Changes {Ropeadope} [24-96]
Стили:
Дата записи диска:
2005
Дата издания диска:
27 сентября 2019
Издатель (лейбл):
Номер по каталогу:
RAD 503
Страна-производитель диска (релиза):
USA
Доп. инфо:

• Формат записи | Источник записи: [TR24][OF]
• Наличие водяных знаков: Нет
• Год издания релиза: 2019
• Продолжительность: 01:18:38
• Источник: internet
• WEB релиз: ссылка
• Контейнер: FLAC (*.flac)
• Тип рипа: tracks
• Разрядность: 24/96
• Формат: PCM
• Количество каналов: 2.0
• Наличие сканов: front

 
состав потреково

Life Changes- Jack DeJohnette-drums, Bill Frisell-guitar, James Genus-acoustic bass, Larry Goldings-piano, Grégoire Maret-harmonica, Tim Ries-tenor sax

For Elis-Jack DeJohnette-drums, Bill Frisell-guitar, James Genus-acoustic bass, Larry Goldings-piano, Grégoire Maret-harmonica, Tim Ries-tenor sax, Mauro Refosco-percussion

Monk’s Dream-Jack DeJohnette-drums, Bill Frisell-guitar, Larry Goldings-organ, Tim Ries-soprano sax

Eliana’s Song-Jack DeJohnette-drums, Bill Frisell-guitar, James Genus-acoustic bass, Jasia Ries-violin, Tim Ries-soprano sax, Stacey Shames-harp

As It Happens-Jack DeJohnette-drums, Bill Frisell-guitar, James Genus-acoustic bass, Larry Goldings-piano, Gonzalo Grau-Cajon, Grégoire Maret-harmonica, Tim Ries-tenor sax, Mauro Refosco-percussion

Hearing Around Corners-Jack DeJohnette-drums, Bill Frisell-guitar, James Genus-acoustic bass, Larry Goldings-organ Gonzalo Grau-Cajon, Grégoire Maret-harmonica, Tim Ries-tenor sax, Mauro Refosco-percussion

Bella’s Lullaby-Larry Goldings-piano, Jasia Ries-voice

Late Last Night-Jack DeJohnette-drums, Bill Frisell-guitar, James Genus-acoustic bass, Larry Goldings-piano, Tim Ries-soprano sax

Amor Até O Fim- Jack DeJohnette-drums, Bill Frisell-guitar, James Genus-electric bass, Larry Goldings-organ, Tim Ries-tenor sax, Mauro Refosco-percussion

It’s Magic-Jack DeJohnette-drums, Grégoire Maret-harmonica, Stacey Shames-harp

Jasia’s Snow Day-Scott Colley-acoustic bass, Jack DeJohnette-drums, Larry Goldings-piano, Grégoire Maret-harmonica, Tim Ries-alto flute

Life Changes reprise-same personnel as track 1


All songs composed and arranged by Tim Ries, Rieses Pieses Music, BMI except Bella’s Lullaby, music composed by Tim Ries, lyrics by Tim and Jasia Ries, Rieses Pieses Music, BMI

Monk’s Dream by Thelonius Monk and Amor Até O Fim by Gilberto Gil

Tim Ries plays Francois Louis mouthpieces, ligatures and reeds

Лог проверки качества
foobar2000 1.4.2 / Dynamic Range Meter 1.1.1
log date: 2020-02-10 21:57:13

--------------------------------------------------------------------------------
Analyzed: Tim Ries / Life Changes
--------------------------------------------------------------------------------

DR         Peak         RMS     Duration Track
--------------------------------------------------------------------------------
DR9       -0.80 dB   -11.83 dB      7:44 01-Life Changes
DR9       -0.80 dB   -12.50 dB      7:44 02-For Elis
DR9       -0.80 dB   -11.75 dB     12:30 03-Monk’s Dream
DR11      -0.80 dB   -14.53 dB      4:12 04-Eliana’s Song
DR8       -0.80 dB   -11.70 dB      8:31 05-As It Happens
DR8       -0.80 dB   -11.20 dB      6:03 06-Hearing Around Corners
DR12      -2.91 dB   -18.01 dB      3:19 07-Bella’s Lullaby
DR8       -0.80 dB   -11.69 dB      7:55 08-Late Last Night
DR9       -0.80 dB   -12.74 dB      5:43 09-Amor Ate O Fim
DR13      -0.92 dB   -17.50 dB      2:05 10-It’s Magic
DR11      -0.80 dB   -14.61 dB      4:59 11-Jasia’s Snow Day
DR8       -0.80 dB   -11.72 dB      7:54 12-Life Changes reprise
--------------------------------------------------------------------------------

Number of tracks:  12
Official DR value: DR10

Samplerate:        96000 Hz
Channels:          2
Bits per sample:   24
Bitrate:           2973 kbps
Codec:             FLAC
================================================================================
Any questions - support@pro-jazz.com. Есть вопросы - support@pro-jazz.com
13:58
290
Нет комментариев. Ваш будет первым!