Вы используете незарегистрированную версию компонента "Вкладки"!

Поиск

2020 Wako - Wako {Øra Fonogram} [24-96]

2020 Wako - Wako {Øra Fonogram} [24-96]
Стили:
Доп. инфо:

• Формат записи | Источник записи: [TR24][OF]
• Наличие водяных знаков: Нет
• Год издания релиза: 2020
• Лейбл: Øra Fonogram
• Продолжительность: 00:56:17
• Источник: internet
• WEB релиз: ссылка
• Контейнер: FLAC (*.flac)
• Тип рипа: tracks
• Разрядность: 24/96
• Формат: WAV (flac.ape.wv)
• Количество каналов: 2.0
• Наличие сканов: front

Лог проверки качества
foobar2000 1.4.2 / Dynamic Range Meter 1.1.1
log date: 2020-02-22 13:00:46

--------------------------------------------------------------------------------
Analyzed: Wako / Wako
--------------------------------------------------------------------------------

DR         Peak         RMS     Duration Track
--------------------------------------------------------------------------------
DR6       -0.29 dB    -9.65 dB      4:11 01-For Those We Love
DR6       -0.28 dB    -8.41 dB      5:55 02-Wako Amok
DR7       -0.30 dB   -11.26 dB      2:19 03-Stjerneskipet
DR8       -0.30 dB    -9.38 dB      1:30 04-Brain Drain
DR6       -0.29 dB    -8.36 dB      6:14 05-Hele verden er en boble
DR8       -0.26 dB   -12.69 dB      4:13 06-Le tapis volant
DR4       -0.34 dB    -5.88 dB      6:42 07-Trakterer du musikk
DR7       -0.30 dB   -10.25 dB      3:35 08-Dagdrømmeren
DR6       -0.20 dB    -7.61 dB      2:56 09-Grown-up Life
DR6       -0.27 dB    -8.57 dB      3:39 10-Everything Comes To an End
DR6       -0.30 dB    -9.41 dB      4:03 11-When Staring Into Light, We Think
DR7       -0.30 dB   -10.09 dB      6:28 12-Skumringsbeltet
DR6       -0.18 dB    -7.51 dB      4:32 13-Savage Detective
--------------------------------------------------------------------------------

Number of tracks:  13
Official DR value: DR6

Samplerate:        96000 Hz
Channels:          2
Bits per sample:   24
Bitrate:           3047 kbps
Codec:             FLAC
================================================================================
Any questions - support@pro-jazz.com. Есть вопросы - support@pro-jazz.com
23:21
281
Нет комментариев. Ваш будет первым!