Вы используете незарегистрированную версию компонента "Вкладки"!

Поиск

2020 STHLM Svaga - Bells & Whistles {Found You} [24-44,1]

2020 STHLM Svaga - Bells & Whistles {Found You} [24-44,1]
Стили:
Доп. инфо:

• Формат записи | Источник записи: [TR24][OF]
• Наличие водяных знаков: Нет
• Год издания релиза: 2020
• Лейбл: Found You Recordings
• Продолжительность: 00:39:18
• Источник: internet
• WEB релиз: ссылка
• Контейнер: FLAC (*.flac)
• Тип рипа: tracks
• Разрядность: 24/44,1
• Формат: WAV (flac.ape.wv)
• Количество каналов: 2.0
• Наличие сканов: front

Лог проверки качества
foobar2000 1.4.2 / Dynamic Range Meter 1.1.1
log date: 2020-02-22 17:42:52

--------------------------------------------------------------------------------
Analyzed: STHLM Svaga / Bells & Whistles
--------------------------------------------------------------------------------

DR         Peak         RMS     Duration Track
--------------------------------------------------------------------------------
DR13     -13.12 dB   -32.35 dB      2:42 01-Tålamod
DR16      -6.04 dB   -28.38 dB     33:50 02-Bells & Whistles
DR13     -11.45 dB   -28.42 dB      2:46 03-Triple Tropical Bull (To Carla Bley)
--------------------------------------------------------------------------------

Number of tracks:  3
Official DR value: DR14

Samplerate:        44100 Hz
Channels:          2
Bits per sample:   24
Bitrate:           1138 kbps
Codec:             FLAC
================================================================================
Any questions - support@pro-jazz.com. Есть вопросы - support@pro-jazz.com
14:31
274
Нет комментариев. Ваш будет первым!