Вы используете незарегистрированную версию компонента "Вкладки"!

Поиск

2020 Jacob Artved Quartet - Live at Jazzhus Montmartre {Storyville} [24-44,1]

2020 Jacob Artved Quartet - Live at Jazzhus Montmartre {Storyville} [24-44,1]
Стили:
Издатель (лейбл):
Доп. инфо:

• Формат записи | Источник записи: [TR24][OF]
• Наличие водяных знаков: Нет
• Год издания релиза: 2020
• Продолжительность: 00:46:46
• Источник: internet
• WEB релиз: ссылка
• Контейнер: FLAC (*.flac)
• Тип рипа: tracks
• Разрядность: 24/44,1
• Формат: WAV (flac.ape.wv)
• Количество каналов: 2.0
• Наличие сканов: front

Лог проверки качества
foobar2000 1.4.2 / Dynamic Range Meter 1.1.1
log date: 2020-02-22 17:57:52

--------------------------------------------------------------------------------
Analyzed: Jacob Artved Quartet / Live at Jazzhus Montmartre
--------------------------------------------------------------------------------

DR         Peak         RMS     Duration Track
--------------------------------------------------------------------------------
DR12      -0.23 dB   -15.12 dB      8:29 01-Exodus
DR12      -0.21 dB   -15.33 dB      7:59 02-Teef
DR13      -1.99 dB   -20.45 dB      7:16 03-Nelia
DR14      -0.22 dB   -17.59 dB      8:29 04-Who Cares
DR15      -1.35 dB   -20.15 dB      7:53 05-I Remember Bird
DR13       0.00 dB   -16.36 dB      6:41 06-Dumbo
--------------------------------------------------------------------------------

Number of tracks:  6
Official DR value: DR13

Samplerate:        44100 Hz
Channels:          2
Bits per sample:   24
Bitrate:           1598 kbps
Codec:             FLAC
================================================================================
Any questions - support@pro-jazz.com. Есть вопросы - support@pro-jazz.com
22:50
265
Нет комментариев. Ваш будет первым!