Вы используете незарегистрированную версию компонента "Вкладки"!

Поиск

2020 Vincent Ingala - Echoes Of The Heart {Shanachie} [24-44,1]

2020 Vincent Ingala - Echoes Of The Heart {Shanachie} [24-44,1]
Стили:
Издатель (лейбл):
Доп. инфо:

• Формат записи | Источник записи: [TR24][OF]
• Наличие водяных знаков: Нет
• Год издания релиза: 2020
• Продолжительность: 00:39:58
• Источник: internet
• WEB релиз: ссылка
• Контейнер: FLAC (*.flac)
• Тип рипа: tracks
• Разрядность: 24/44,1
• Формат: WAV (flac.ape.wv)
• Количество каналов: 2.0
• Наличие сканов: Digital booklet

Лог проверки качества
foobar2000 1.4.2 / Dynamic Range Meter 1.1.1
log date: 2020-02-22 12:59:52

--------------------------------------------------------------------------------
Analyzed: Vincent Ingala / Echoes Of The Heart
--------------------------------------------------------------------------------

DR         Peak         RMS     Duration Track
--------------------------------------------------------------------------------
DR10      -0.70 dB   -11.77 dB      4:02 01-Caught Me By Surprise
DR9       -0.70 dB   -11.53 dB      3:43 02-Maybe You Think
DR9       -0.70 dB   -11.10 dB      3:58 03-Echoes of the Heart
DR9       -0.70 dB   -10.63 dB      3:39 04-What's Option B?
DR8       -0.70 dB   -10.55 dB      4:16 05-Ready Or Not
DR8       -0.70 dB   -10.32 dB      4:05 06-Somewhere In Time
DR10      -0.70 dB   -12.07 dB      3:43 07-Let's Go Back
DR9       -0.70 dB   -10.90 dB      4:06 08-Take Your Time
DR10      -0.70 dB   -11.86 dB      4:02 09-Baby, Baby
DR10      -0.70 dB   -11.85 dB      4:26 10-Sunset On Marco
--------------------------------------------------------------------------------

Number of tracks:  10
Official DR value: DR9

Samplerate:        44100 Hz
Channels:          2
Bits per sample:   24
Bitrate:           1646 kbps
Codec:             FLAC
================================================================================
Any questions - support@pro-jazz.com. Есть вопросы - support@pro-jazz.com
22:51
307
Нет комментариев. Ваш будет первым!