Поиск

2017 Penguin Cafe + Cornelius - Umbrella {Erased Tapes} [24-44,1]

2017 Penguin Cafe + Cornelius - Umbrella {Erased Tapes} [24-44,1]
Доп. инфо:

Формат записи/Источник записи: [TR24][OF]
Наличие водяных знаков: Нет
Год издания/переиздания диска: 2017
Издатель (лейбл): Erased Tapes
Продолжительность: 00:17:47
Наличие сканов в содержимом раздачи: Только обложка альбома
Источник (релизер): highresaudio

Контейнер: FLAC (*.flac)
Тип рипа: tracks
Разрядность: 24/44,1
Формат: PCM
Количество каналов: 2.0
Доп. информация: https://www.penguincafe.com/

 
Об исполнителях (рус.) | About Artists (ru)

Penguin Café
Людям, которые раньше ничего не слышали о Penguin Café, нужно знать, что в 1970-е годы музыкант по имени Саймон Джеффс создал ансамбль Penguin Café Orchestra, с которым выпустил несколько альбомов. Саймон работал в качестве продюсера с рядом рок-групп, включая Caravan и Camel, но при этом хотел, чтобы его команда исполняла «абсолютную музыку», свободную от стилевых и национальных границ. Эталонными для Джеффса были музыкальные взгляды Брайана Ино. История Penguin Café Orchestra закончилась со смертью Саймона в 1997 году. А спустя 12 лет его сын Артур Джеффс возродил ансамбль, но с укороченным названием – Penguin Café – и с совсем другими музыкантами, не из оригинальной группы, а, в частности, из Suede, Gorillaz и Florence and the Machine. Самые известные среди них – клавишник Нил Кодлинг и перкуссионист Кэсс Браун.

Проект Penguin Café исполняет акустическую и камерную по звучанию музыку. Она легко ложится на слух, создаёт настроение светлой грусти и плохо поддаётся классификации. Звучание ансамбля, состоящего из 11 человек, формируют струнная секция, укулеле, фортепиано, перкуссия, акустическая гитара и фисгармония, успешно заменяющие «напрашивающиеся» электронные звуки. Собственно, в этой замене и состоит кредо музыкантов Penguin Café (как и Penguin Café Orchestra).

https://www.last.fm/ru/music/Penguin+Cafe/+wiki

Лог проверки качества
foobar2000 1.1.15 / Dynamic Range Meter 1.1.1
log date: 2020-02-20 09:16:48

--------------------------------------------------------------------------------
Analyzed: Penguin Cafe & Cornelius / Umbrella
--------------------------------------------------------------------------------

DR         Peak         RMS     Duration Track
--------------------------------------------------------------------------------
DR7       -0.15 dB    -9.54 dB      4:29 01-Solaris (Cornelius Mix)
DR7       -0.15 dB   -10.40 dB      4:14 02-Birdwatching at Inner Forest (Penguin Cafe Mix)
DR11      -0.15 dB   -13.87 dB      4:24 03-Close Encounter
DR9       -0.15 dB   -11.38 dB      4:44 04-The Track of the Dull Sun
--------------------------------------------------------------------------------

Number of tracks:  4
Official DR value: DR8

Samplerate:        44100 Hz
Channels:          2
Bits per sample:   24
Bitrate:           1338 kbps
Codec:             FLAC
================================================================================
No seeders - write personal message to M0p94ok. Any questions - support@pro-jazz.com.
Нет сидеров - пишите в личку M0p94ok. Есть вопросы - support@pro-jazz.com
10:34
241
Нет комментариев. Ваш будет первым!