Вы используете незарегистрированную версию компонента "Вкладки"!

Поиск

2018 Paradigm Refrain - Leyden Jar {Great Shapes} [24-96]

2018 Paradigm Refrain - Leyden Jar {Great Shapes} [24-96]
Дата издания диска:
7 декабря 2018
Носитель:
WEB
Формат:
PCM
Тип рипа:
tracks+.cue
Контейнер:
FLAC (*.flac)
Количество каналов:
2.0
Разрядность/ЧД:
24/96
Время звучания:
00:11:11
Наличие сканов:
web
Релизёр (источник):
M0p94ok
Лог проверки качества
foobar2000 1.3.16 / Dynamic Range Meter 1.1.1
log date: 2018-12-31 19:05:00

--------------------------------------------------------------------------------
Analyzed: Paradigm Refrain / Leyden Jar
--------------------------------------------------------------------------------

DR         Peak         RMS     Duration Track
--------------------------------------------------------------------------------
DR9       -2.00 dB   -12.86 dB      0:23 01-Exemplar
DR9       -2.00 dB   -14.56 dB      1:51 02-Weight Relations
DR4       -2.00 dB    -6.28 dB      0:35 03-Anomaly
DR7       -2.00 dB   -12.28 dB      4:01 04-Discrepancy
DR3       -2.00 dB    -6.97 dB      0:46 05-Emergence
DR7       -2.00 dB   -11.26 dB      3:40 06-Aberration
--------------------------------------------------------------------------------

Number of tracks:  6
Official DR value: DR6

Samplerate:        96000 Hz
Channels:          2
Bits per sample:   24
Bitrate:           2438 kbps
Codec:             FLAC
================================================================================
Any questions - support@pro-jazz.com. Есть вопросы - support@pro-jazz.com
23:44
264
Нет комментариев. Ваш будет первым!