Вы используете незарегистрированную версию компонента "Вкладки"!

Поиск

1974 Sonny Stitt - Satan (2019) {Janus} [24-96]

1974 Sonny Stitt - Satan (2019) {Janus} [24-96]
Стили:
Доп. инфо:

Формат записи/Источник записи: [TR24][OF]
Издание: Remastered
Год издания/переиздания диска: 1974/2019
Жанр: Smooth Jazz
Издатель (лейбл): Janus Records
Продолжительность: 00:33:39
Наличие сканов в содержимом раздачи: Нет

Контейнер: FLAC (*.flac)
Тип рипа: tracks
Разрядность: 24/96
Количество каналов: 2.0

Источник (релизер): Qobuz

Лог проверки качества
foobar2000 1.4.3 / Dynamic Range Meter 1.1.1
log date: 2020-02-18 12:45:17

--------------------------------------------------------------------------------
Analyzed: Sonny Stitt / Satan (Remastered)
--------------------------------------------------------------------------------

DR         Peak         RMS     Duration Track
--------------------------------------------------------------------------------
DR12      -1.21 dB   -15.24 dB      4:08 01-Satan
DR12      -1.21 dB   -16.08 dB      3:44 02-A Crazy Mixed up World
DR12      -1.21 dB   -14.50 dB      6:34 03-Big Bad Henry
DR12      -1.21 dB   -18.98 dB      1:56 04-Gee Baby Ain't I Good to You
DR11      -1.21 dB   -14.61 dB      5:46 05-Will You Love Me Tomorrow
DR11      -1.21 dB   -14.65 dB      6:46 06-Anone
DR12      -3.18 dB   -18.82 dB      4:48 07-It Might as Well Be Spring
--------------------------------------------------------------------------------

Number of tracks:  7
Official DR value: DR12

Samplerate:        96000 Hz
Channels:          2
Bits per sample:   24
Bitrate:           2160 kbps
Codec:             FLAC
================================================================================
Any questions - support@pro-jazz.com. Есть вопросы - support@pro-jazz.com
21:49
290
Нет комментариев. Ваш будет первым!