Вы используете незарегистрированную версию компонента "Вкладки"!

Поиск

2018 Nico Marziliano - Alone in Action {Farelive} [24-96]

2018 Nico Marziliano - Alone in Action {Farelive} [24-96]
Носитель:
WEB
Формат:
PCM
Тип рипа:
tracks+.cue
Контейнер:
FLAC (*.flac)
Количество каналов:
2.0
Разрядность/ЧД:
24/96
Время звучания:
00:58:57
Наличие сканов:
web
Страна-производитель диска (релиза):
Italy
Релизёр (источник):
M0p94ok
Лог проверки качества
foobar2000 1.3.16 / Dynamic Range Meter 1.1.1
log date: 2018-12-31 19:04:56

--------------------------------------------------------------------------------
Analyzed: Nico Marziliano / Alone in Action!
--------------------------------------------------------------------------------

DR         Peak         RMS     Duration Track
--------------------------------------------------------------------------------
DR10      -0.40 dB   -12.92 dB      4:46 01-Someday My Prince Will Come
DR10      -0.40 dB   -13.65 dB      6:57 02-Star Eyes
DR11      -0.40 dB   -15.13 dB      4:56 03-In a Sentimental Mood
DR11      -0.40 dB   -13.61 dB      4:58 04-Like Someone in Love
DR12      -0.40 dB   -15.91 dB      6:52 05-To Mike P
DR12      -0.40 dB   -14.97 dB      5:33 06-Reflections
DR10      -0.40 dB   -12.47 dB      3:50 07-Hackensack
DR11      -0.40 dB   -14.88 dB      6:14 08-Andante from Rhapsody in Blue
DR11      -0.40 dB   -12.99 dB      4:52 09-Blowing on a Tango Line
DR11      -0.40 dB   -14.46 dB      3:15 10-Blue in Green
DR10      -0.40 dB   -12.09 dB      2:58 11-Nickname
DR11      -0.91 dB   -17.47 dB      3:54 12-Jazz Autographs
--------------------------------------------------------------------------------

Number of tracks:  12
Official DR value: DR11

Samplerate:        96000 Hz
Channels:          2
Bits per sample:   24
Bitrate:           2281 kbps
Codec:             FLAC
================================================================================
Any questions - support@pro-jazz.com. Есть вопросы - support@pro-jazz.com
20:34
244
Нет комментариев. Ваш будет первым!