Поиск

2020 Vinicius Chagas - Live At Nossa Casa ...Vestígio (ao Vivo) {Galeao Producoes} [24-48]

2020 Vinicius Chagas - Live At Nossa Casa ...Vestígio (ao Vivo) {Galeao Producoes} [24-48]
Стили:
Битрейт аудио:
lossless
Треклист:

01. Colágeno (14:17)
02. Sol da Meia Noite (12:44)
03. Farias de Todos os Santos (9:31)
04. Holofo(r)tes (22:28)
05. Bergen Avenue 371 (14:19)
06. Black Sheep (14:17)
07. Holiday Prison (2:30)
08. Eurotrip (13:35)
09. Somebody Love (13:38)

Доп. инфо:

Формат записи/Источник записи: [TR24][OF]
Наличие водяных знаков: Нет
Год издания/переиздания диска: 2020
Издатель (лейбл): Galeao Producoes Artísticas Musicais e Comércio Ltda.
Продолжительность: 01:57:20
Наличие сканов в содержимом раздачи: Только обложка альбома

Контейнер: FLAC (*.flac)
Тип рипа: tracks
Разрядность: 24/48
Формат: PCM
Количество каналов: 2.0

Источник: highresaudio.com

Лог проверки качества
foobar2000 1.3.9 / Dynamic Range Meter 1.1.1
log date: 2020-07-20 00:24:37

--------------------------------------------------------------------------------
Analyzed: Vinicius Chagas / Live At Nossa Casa ...Vestígio (ao Vivo)
--------------------------------------------------------------------------------

DR         Peak         RMS     Duration Track
--------------------------------------------------------------------------------
DR8       -1.00 dB   -10.83 dB     14:17 01-Colágeno
DR8        0.00 dB    -9.25 dB     12:44 02-Sol da Meia Noite
DR7        0.00 dB    -8.85 dB      9:31 03-Farias de Todos os Santos
DR7       -1.00 dB    -9.33 dB     22:28 04-Holofo(r)tes
DR8        0.00 dB    -9.21 dB     14:19 05-Bergen Avenue 371
DR8       -0.60 dB   -10.54 dB     14:17 06-Black Sheep
DR9       -1.00 dB   -10.89 dB      2:30 07-Holiday Prison
DR7        0.00 dB    -9.09 dB     13:35 08-Eurotrip
DR8       -0.80 dB    -9.78 dB     13:38 09-Somebody Love
--------------------------------------------------------------------------------

Number of tracks:  9
Official DR value: DR8

Samplerate:        48000 Hz
Channels:          2
Bits per sample:   24
Bitrate:           1799 kbps
Codec:             FLAC
================================================================================
По всем вопросам пишите личное сообщение пользователю M0p94ok.
05:58
412
Нет комментариев. Ваш будет первым!