Вы используете незарегистрированную версию компонента "Вкладки"!

Поиск

2017 Diana Krall - Turn Up The Quiet {Verve Music} [DSD128]

2017 Diana Krall - Turn Up The Quiet {Verve Music} [DSD128]
Стили:
Издатель (лейбл):
Битрейт аудио:
lossless
Доп. инфо:

Формат записи/Источник записи: [DSD][OF]
Наличие водяных знаков: Да
Год издания/переиздания диска: 2017
Продолжительность: 48:18
Наличие сканов в содержимом раздачи: Только обложка альбома

Контейнер: DSF (*.dsf)
Тип рипа: tracks
Разрядность: 128 (5,6 MHz/1 Bit)
Формат: DSD
Количество каналов: 2.0

Лог проверки качества
foobar2000 1.4 / Dynamic Range Meter 1.1.1
log date: 2020-07-18 17:38:54
-------------------------------------------------------------------------------
Analyzed: Diana Krall / Turn Up The Quiet
-------------------------------------------------------------------------------
DR           Peak          RMS     Duration         Track
-------------------------------------------------------------------------------
DR11   -5.91 dB   -18.55 dB   3:16   01-Like Someone In Love
DR12   -5.95 dB   -20.94 dB   4:29   02-Isn't It Romantic
DR11   -6.01 dB   -19.26 dB   4:21   03-L-O-V-E
DR11   -6.03 dB   -20.49 dB   4:39   04-Night And Day
DR11   -5.94 dB   -18.64 dB   3:24   05-I'm Confessin' (That I Love You)
DR14   -6.00 dB   -22.28 dB   5:15   06-Moonglow
DR12   -5.95 dB   -19.50 dB   4:39   07-Blue Skies
DR13   -5.96 dB   -21.96 dB   6:13   08-Sway
DR10   -5.87 dB   -19.40 dB   4:06   09-No Moon At All
DR13   -5.93 dB   -21.85 dB   4:05   10-Dream
DR11   -5.94 dB   -19.21 dB   3:51   11-I'll See You In My Dreams
-------------------------------------------------------------------------------
Number of tracks: 11
Official DR value: DR12

Samplerate: 5644800 Hz / PCM Samplerate: 176400 Hz
Channels: 2
Bits per sample: 1
Bitrate: 11290 kbps
Codec: DSD128
=================================================
Any questions - support@pro-jazz.com. Есть вопросы - support@pro-jazz.com
07:41
418
Нет комментариев. Ваш будет первым!