Вы используете незарегистрированную версию компонента "Вкладки"!

Поиск

2020 VA - Tales of Wonder: A Jazz Celebration of Stevie {Posi-Tone} [24-44,1]

2020 VA - Tales of Wonder: A Jazz Celebration of Stevie {Posi-Tone} [24-44,1]
Стили:
Издатель (лейбл):
Битрейт аудио:
lossless
Доп. инфо:

Формат записи/Источник записи: [TR24][OF]
Наличие водяных знаков: Нет
Год издания/переиздания диска: 2020
Издатель (лейбл): Posi-Tone
Продолжительность: 00:36:04
Наличие сканов в содержимом раздачи: Только обложка альбома

Контейнер: FLAC (*.flac)
Тип рипа: tracks
Разрядность: 24/44,1
Формат: PCM
Количество каналов: 2.0

Источник (релизер): https://positone.bandcamp.com/album/tales-of-wonder-a-jazz-celebration-of-stevie

Лог проверки качества
foobar2000 1.4.6 / Dynamic Range Meter 1.1.1
log date: 2020-06-05 03:34:13

--------------------------------------------------------------------------------
Analyzed: Diego Rivera / Tales of Wonder - A Jazz Celebration of Stevie (1)
          Farnell Newton / Tales of Wonder - A Jazz Celebration of Stevie (2)
          Idle Hands / Tales of Wonder - A Jazz Celebration of Stevie (3)
          Jared Gold / Tales of Wonder - A Jazz Celebration of Stevie (4)
          Jon Davis / Tales of Wonder - A Jazz Celebration of Stevie (5)
          Out To Dinner / Tales of Wonder - A Jazz Celebration of Stevie (6)
          Theo Hill / Tales of Wonder - A Jazz Celebration of Stevie (7)
          Works For Me / Tales of Wonder - A Jazz Celebration of Stevie (8)
--------------------------------------------------------------------------------

DR         Peak         RMS     Duration Track
--------------------------------------------------------------------------------
DR10      -0.98 dB   -13.41 dB      5:05 06-The Secret Life Of Plants
DR10      -0.98 dB   -13.63 dB      5:40 07-All In Love Is Fair
DR8       -0.98 dB   -11.57 dB      4:16 04-You And I
DR11      -0.98 dB   -13.84 dB      4:53 05-You Haven't Done Nothin'
DR11      -0.98 dB   -15.01 dB      4:06 02-My Cherie Amour
DR11      -0.98 dB   -15.50 dB      3:45 08-Visions
DR10      -0.98 dB   -13.04 dB      4:08 03-Superwoman
DR8       -0.98 dB   -10.95 dB      4:17 01-Send One Your Love
--------------------------------------------------------------------------------

Number of tracks:  8
Official DR value: DR10

Samplerate:        88200 Hz
Channels:          2
Bits per sample:   24
Bitrate:           2673 kbps
Codec:             FLAC
================================================================================
Any questions - support@pro-jazz.com. Есть вопросы - support@pro-jazz.com
06:28
253
Нет комментариев. Ваш будет первым!