Вы используете незарегистрированную версию компонента "Вкладки"!

Поиск

2020 Louis Armstrong - Simply ... Satchmo! {Jube Legends} [24-48]

2020 Louis Armstrong - Simply ... Satchmo! {Jube Legends} [24-48]
Стили:
Битрейт аудио:
lossless
Доп. инфо:

Формат записи/Источник записи: [TR24][OF]
Издание: Remastered
Год издания/переиздания диска: 2020
Издатель (лейбл): Jube Legends
Продолжительность: 02:45:37
Наличие сканов в содержимом раздачи: Нет

Контейнер: FLAC (*.flac)
Тип рипа: tracks
Разрядность: 24/48
Количество каналов: 2.0

Источник (релизер): PRESTO JAZZ

Лог проверки качества
foobar2000 1.4.3 / Dynamic Range Meter 1.1.1
log date: 2020-07-11 00:39:29

--------------------------------------------------------------------------------
Analyzed: Arthur Hill / Simply ... Satchmo! (2020 Remaster) (1)
          Billy Moore / Simply ... Satchmo! (2020 Remaster) (2)
          Cliff Dixon / Simply ... Satchmo! (2020 Remaster) (3)
          Cole Porter / Simply ... Satchmo! (2020 Remaster) (4-6)
          Dubose Hayward / Simply ... Satchmo! (2020 Remaster) (7-9)
          Einar Aaron Swan / Simply ... Satchmo! (2020 Remaster) (10)
          Gus Kahn / Simply ... Satchmo! (2020 Remaster) (11-12)
          Hughie Cannon / Simply ... Satchmo! (2020 Remaster) (13)
          Irving Berlin / Simply ... Satchmo! (2020 Remaster) (14-15)
          Jack Teagarden / Simply ... Satchmo! (2020 Remaster) (16)
          Joe Burke / Simply ... Satchmo! (2020 Remaster) (17)
          Joe Hayden / Simply ... Satchmo! (2020 Remaster) (18)
          Leroy Carr / Simply ... Satchmo! (2020 Remaster) (19-20)
          Lou Alter / Simply ... Satchmo! (2020 Remaster) (21)
          Louis Armstrong / Simply ... Satchmo! (2020 Remaster) (22-25)
          Percy Venerable / Simply ... Satchmo! (2020 Remaster) (26)
          Philmore Holley / Simply ... Satchmo! (2020 Remaster) (27)
          Richard Carroll / Simply ... Satchmo! (2020 Remaster) (28)
          Richard Huey / Simply ... Satchmo! (2020 Remaster) (29)
          Robert MacGimsey / Simply ... Satchmo! (2020 Remaster) (30-31)
          Roger Graham / Simply ... Satchmo! (2020 Remaster) (32)
          Sammy Kahn / Simply ... Satchmo! (2020 Remaster) (33)
          Sister Rosetta Tharpe / Simply ... Satchmo! (2020 Remaster) (34)
          Spencer Williams / Simply ... Satchmo! (2020 Remaster) (35)
          Thomas Fats Waller / Simply ... Satchmo! (2020 Remaster) (36)
          Traditional / Simply ... Satchmo! (2020 Remaster) (37-49)
          Walter Melrose / Simply ... Satchmo! (2020 Remaster) (50)
--------------------------------------------------------------------------------

DR         Peak         RMS     Duration Track
--------------------------------------------------------------------------------
DR12       0.00 dB   -15.27 dB      3:04 47-Kiss of fire (el Choclo)
DR11       0.00 dB   -14.49 dB      2:57 07-Fifty-Fifty-Blues
DR12       0.00 dB   -14.76 dB      3:07 01-Where the Blues were born in New Orleans
DR13       0.00 dB   -14.09 dB      2:11 38-High Society
DR15       0.00 dB   -18.37 dB      4:02 42-Jubilee: Just one of those things
DR12       0.00 dB   -14.55 dB      4:17 43-Anything goes: I get a kick out of you
DR12       0.00 dB   -14.39 dB      4:44 44-Porgy and Bess: A woman Is a sometime thing
DR12       0.00 dB   -14.40 dB      4:52 45-Porgy and Bess: Dere's a boat dat's soon leavin' for New York
DR11       0.00 dB   -14.33 dB      2:57 46-Porgy and Bess: Oh Lawd, I'm on my way
DR12       0.00 dB   -17.52 dB      4:35 41-Blonde Crazy: When your lover has gone
DR11       0.00 dB   -13.65 dB      2:57 04-Hurdy Gurdy Man
DR14       0.00 dB   -16.42 dB      3:55 39-Whoopee: Makin' Whoopee
DR12       0.00 dB   -13.57 dB      3:58 28-Frankie and Johnny
DR13       0.00 dB   -15.57 dB      4:09 40-Top hat, white tie and tails
DR12       0.00 dB   -14.22 dB      2:58 48-Sittin' in the sun, countin' my money
DR11       0.00 dB   -13.91 dB      3:00 37-Jack-Armstrong-Blues
DR11       0.00 dB   -13.19 dB      3:06 03-Pennies from Heaven: The skeleton in the cupboard
DR11       0.00 dB   -13.71 dB      3:31 30-Hot time in the old time
DR10      -4.95 dB   -17.49 dB      2:34 08-Blues for yesterday
DR10       0.00 dB   -13.29 dB      3:02 36-Blues in the South
DR10       0.00 dB   -13.22 dB      3:01 50-Don't you know what It means to miss New Orleans
DR12       0.00 dB   -13.90 dB      3:20 05-The Three-Penny-Opera: Mack the Knife
DR10       0.00 dB   -12.13 dB      3:16 06-Back O'Town Blues
DR11       0.00 dB   -12.92 dB      2:46 34-Jelly Roll Blues
DR12       0.00 dB   -13.78 dB      3:22 35-Chimes Blues
DR12       0.00 dB   -14.68 dB      3:41 27-Big Butter and Egg Man
DR11       0.00 dB   -13.98 dB      2:49 29-Drop That sack
DR13       0.00 dB   -14.57 dB      3:02 20-On my way
DR14       0.00 dB   -15.84 dB      2:55 18-Rock my soul
DR13       0.00 dB   -15.93 dB      2:45 12-Shadrack
DR13       0.00 dB   -15.05 dB      2:38 13-Jonah and the whale
DR11       0.00 dB   -13.85 dB      3:55 31-I ain't got nobody
DR12       0.00 dB   -15.03 dB      3:08 49-Follow the boys: I'll walk alone
DR12       0.00 dB   -14.09 dB      2:25 19-This train
DR12       0.00 dB   -14.51 dB      4:00 32-I ain't gonna give nobody none of the jelly roll
DR14       0.00 dB   -17.66 dB      3:22 02-Ain't misbehavin'
DR11       0.00 dB   -13.31 dB      2:42 09-When the saints go marchin' in
DR15       0.00 dB   -18.53 dB      2:47 10-Going to shout all over God's heaven
DR13       0.00 dB   -14.60 dB      3:00 11-Nobody knows the trouble I have seen
DR12       0.00 dB   -13.59 dB      3:37 14-Go down, Moses
DR11       0.00 dB   -13.83 dB      2:48 15-Didn't It rain
DR13       0.00 dB   -15.08 dB      3:09 16-Down by the riverside
DR12       0.00 dB   -14.93 dB      3:27 17-Sometimes I feel like a motherless child
DR13       0.00 dB   -15.26 dB      2:30 21-Ezekiel saw the wheel
DR11       0.00 dB   -12.44 dB      2:30 22-Bye and bye
DR13       0.00 dB   -15.65 dB      3:07 23-Swing low, sweet chariot
DR11       0.00 dB   -13.84 dB      4:32 24-My old Kentucky Home
DR11       0.00 dB   -16.13 dB      4:54 25-St. James Infirmary
DR11       0.00 dB   -13.49 dB      4:01 26-Panama
DR12       0.00 dB   -13.82 dB      2:35 33-Doctor Jazz
--------------------------------------------------------------------------------

Number of tracks:  50
Official DR value: DR12

Samplerate:        48000 Hz
Channels:          2
Bits per sample:   24
Bitrate:           1396 kbps
Codec:             FLAC
================================================================================
Any questions - support@pro-jazz.com. Есть вопросы - support@pro-jazz.com
18:25
331
Нет комментариев. Ваш будет первым!