Вы используете незарегистрированную версию компонента "Вкладки"!

Поиск

2020 Glenn Zaleski - The Question {Sunnyside} [24-96]

2020 Glenn Zaleski - The Question {Sunnyside} [24-96]
Стили:
Издатель (лейбл):
Битрейт аудио:
lossless
Доп. инфо:

Формат записи/Источник записи: [TR24][OF]
Наличие водяных знаков: Нет
Год издания/переиздания диска: 2020
Продолжительность: 54:20
Наличие сканов в содержимом раздачи: Только обложка альбома

Контейнер: FLAC (*.flac)
Тип рипа: tracks
Разрядность: 24/96
Формат: PCM
Количество каналов: 2.0

Источник: qobuz.com

Лог проверки качества
foobar2000 1.3.9 / Dynamic Range Meter 1.1.1
log date: 2020-07-18 21:16:29

--------------------------------------------------------------------------------
Analyzed: Glenn Zaleski / The Question
--------------------------------------------------------------------------------

DR         Peak         RMS     Duration Track
--------------------------------------------------------------------------------
DR10      -0.60 dB   -13.44 dB      8:51 01-The Question
DR11      -0.60 dB   -14.60 dB      7:26 02-Backstep
DR9       -0.60 dB   -13.57 dB      6:06 03-Smoke And Mirrors
DR14      -0.60 dB   -18.42 dB      7:38 04-Strange Meadow Lark
DR9       -0.60 dB   -14.11 dB      5:07 05-Subterfuge
DR12      -0.60 dB   -17.12 dB      8:31 06-BK Bossa Nova
DR10      -0.60 dB   -13.13 dB      8:22 07-Road Life
DR13      -0.60 dB   -18.31 dB      2:18 08-The Answer
--------------------------------------------------------------------------------

Number of tracks:  8
Official DR value: DR11

Samplerate:        96000 Hz
Channels:          2
Bits per sample:   24
Bitrate:           2250 kbps
Codec:             FLAC
================================================================================
Any questions - support@pro-jazz.com. Есть вопросы - support@pro-jazz.com
14:01
239
Нет комментариев. Ваш будет первым!