Поиск

2020 Veronique Hermann Sambin - Sky Loom {jazz family} [24-44,1]

2020 Veronique Hermann Sambin - Sky Loom {jazz family} [24-44,1]
Стили:
Треклист:

01 Lanmou the Entertainer 03:20
02 Sanblé 02:46
03 Di-Yo 03:33
04 Ananse (Interlude) 00:51
05 Sourire 03:40
06 Fèt à la Gwadloup 01:48
07 Wonderfil 03:43
08 Douwé 04:52
09 Toubèlman (Interlude) 02:01
10 Volonté 03:33
11 Sky Loom 03:39
12 Foufou 03:18
13 Foufou frange 02:15
14 Léjé 03:11
15 Kumasi 01:31

Доп. инфо:

Формат записи/Источник записи: [TR24][OF]
Наличие водяных знаков: Нет
Год издания/переиздания диска: 2020
Издатель (лейбл): jazz family
Продолжительность: 00:44:08
Наличие сканов в содержимом раздачи: Только обложка альбома
Источник (релизер): qobuz

Контейнер: FLAC (*.flac)
Тип рипа: tracks
Разрядность: 24/44,1
Формат: PCM
Количество каналов: 2.0

Лог проверки качества
foobar2000 1.1.15 / Dynamic Range Meter 1.1.1
log date: 2020-01-19 19:07:06

--------------------------------------------------------------------------------
Analyzed: Véro Hermann Sambin / Sky Loom
--------------------------------------------------------------------------------

DR         Peak         RMS     Duration Track
--------------------------------------------------------------------------------
DR10      -0.10 dB   -12.49 dB      3:21 01-Lanmou the Entertainer
DR10      -0.10 dB   -12.67 dB      2:47 02-Sanblé
DR10      -0.10 dB   -12.19 dB      3:33 03-Di-Yo
DR11      -0.58 dB   -17.09 dB      0:52 04-Ananse (Interlude)
DR11      -0.20 dB   -13.61 dB      3:40 05-Sourire
DR11      -0.10 dB   -13.48 dB      1:49 06-Fèt à la Gwadloup
DR10      -0.10 dB   -12.83 dB      3:43 07-Wonderfil
DR9       -0.10 dB   -12.42 dB      4:53 08-Douwé
DR12      -0.10 dB   -14.63 dB      2:02 09-Toubèlman (Interlude)
DR11      -0.10 dB   -12.85 dB      3:34 10-Volonté
DR10      -0.10 dB   -13.08 dB      3:39 11-Sky Loom
DR9       -0.10 dB   -12.08 dB      3:19 12-Foufou
DR11      -0.10 dB   -12.90 dB      2:15 13-Foufou frange
DR10      -0.10 dB   -12.88 dB      3:12 14-Léjé
DR11      -1.65 dB   -16.13 dB      1:31 15-Kumasi
--------------------------------------------------------------------------------

Number of tracks:  15
Official DR value: DR10

Samplerate:        44100 Hz
Channels:          2
Bits per sample:   24
Bitrate:           1509 kbps
Codec:             FLAC
================================================================================
Приватный:
Нет (DHT включён)
Размер:
505.21 Мб (529,754,688 байт) » файлов: 18
Участники:
2 раздают, 0 качают (2 участников всего)
Внешние участники:
10 раздают, 3 качают (13 участников всего) [ Обновить ]
Скорость:
532.24 Кб/c 0/c
Есть вопросы - пишите личное сообщение пользователю M0p94ok.
21:51
30
Нет комментариев. Ваш будет первым!