Поиск

1954 Cal Tjader's Modern Mambo Quintet - Mambo With Tjader! (2019) {RevOla} [24-44,1]

1954 Cal Tjader's Modern Mambo Quintet - Mambo With Tjader! (2019) {RevOla} [24-44,1]
Стили:

Треклист:

01 - Mamblues [Mambo] 02:28
02 - Midnight Sun [Cha-Cha-Cha] 03:57
03 - Sonny Boy [Mambo] 02:37
04 - Cherry [Cha-Cha-Cha] 03:24
05 - I'll Remember April [Bolero] 03:21
06 - This Can't Be Love [Mambo] 03:05
07 - Tenderly [Bolero] 03:49
08 - Dearly Beloved [Cha-Cha-Cha] 03:58
09 - Chloe [Mambo] 02:32
10 - Lucero [Mambo] 03:17
11 - Bye Bye Blues [Mambo] 02:59
12 - Autumn Leaves [Bolero] 02:49

Доп. инфо:

Формат записи/Источник записи: [TR24][OF]
Издание: Remastered
Год издания/переиздания диска: 1954/2019
Издатель (лейбл): RevOla
Продолжительность: 00:38:16
Наличие сканов в содержимом раздачи: Нет

Контейнер: FLAC (*.flac)
Тип рипа: tracks
Разрядность: 24/44,1
Количество каналов: 2.0

Источник (релизер): Qobuz

Лог проверки качества
foobar2000 1.3.16 / Dynamic Range Meter 1.1.1
log date: 2019-03-22 23:35:21

--------------------------------------------------------------------------------
Analyzed: Cal Tjader / Mambo With Tjader!
--------------------------------------------------------------------------------

DR         Peak         RMS     Duration Track
--------------------------------------------------------------------------------
DR13      -3.66 dB   -20.27 dB      2:28 01-Mamblues [Mambo]
DR15      -5.01 dB   -21.85 dB      3:58 02-Midnight Sun [Cha-Cha-Cha]
DR13      -4.97 dB   -21.15 dB      2:37 03-Sonny Boy [Mambo]
DR14      -5.71 dB   -21.59 dB      3:25 04-Cherry [Cha-Cha-Cha]
DR13      -6.02 dB   -22.10 dB      3:22 05-I'll Remember April [Bolero]
DR14      -5.06 dB   -20.31 dB      3:05 06-This Can't Be Love [Mambo]
DR13      -4.40 dB   -19.10 dB      3:49 07-Tenderly [Bolero]
DR16      -5.26 dB   -22.85 dB      3:58 08-Dearly Beloved [Cha-Cha-Cha]
DR15      -6.06 dB   -22.77 dB      2:32 09-Chloe [Mambo]
DR15      -4.85 dB   -22.49 dB      3:17 10-Lucero [Mambo]
DR14      -5.58 dB   -20.31 dB      2:59 11-Bye Bye Blues [Mambo]
DR14      -3.81 dB   -21.53 dB      2:49 12-Autumn Leaves [Bolero]
--------------------------------------------------------------------------------

Number of tracks:  12
Official DR value: DR14

Samplerate:        44100 Hz
Channels:          2
Bits per sample:   24
Bitrate:           1192 kbps
Codec:             FLAC
================================================================================
Приватный:
Нет (DHT включён)
Размер:
321.77 Мб (337,403,073 байт) » файлов: 16
Участники:
16 раздают, 0 качают (16 участников всего)
Внешние участники:
--- [ Обновить ]
Скорость:
0/c 782.00 байт/c
Есть вопросы - пишите личное сообщение пользователю M0p94ok.
20:40
19
Нет комментариев. Ваш будет первым!