Поиск

1969 Mongo Santamaria - Workin' On a Groovy Thing (2018) {Columbia, Legacy} [24-96]

1969 Mongo Santamaria - Workin' On a Groovy Thing (2018) {Columbia, Legacy} [24-96]
Дата переиздания диска:
23 ноября 2018
Издатель (лейбл):
Номер по каталогу:
CS 9937
Треклист:

01. Workin' On a Groovy Thing  03:17
02. Spinning Wheel  02:57
03. Too Busy Thinking About My Baby  02:29
04. We Got Latin Soul  03:04
05. Getting It Out of My System  03:14
06. Proud Mary  03:37
07. It's Your Thing  02:57
08. My Cherie Amour  03:09
09. Get Back  02:55
10. Ain't That Peculiar  02:46
11. Twenty-Five Miles  02:22

Лог проверки качества
foobar2000 1.3.16 / Dynamic Range Meter 1.1.1
log date: 2018-11-26 21:31:29

--------------------------------------------------------------------------------
Analyzed: Mongo Santamaria / Workin' On a Groovy Thing
--------------------------------------------------------------------------------

DR         Peak         RMS     Duration Track
--------------------------------------------------------------------------------
DR11      -0.02 dB   -12.61 dB      3:18 01-Workin' On a Groovy Thing
DR11      -0.02 dB   -12.92 dB      2:57 02-Spinning Wheel
DR11      -0.02 dB   -13.27 dB      2:30 03-Too Busy Thinking About My Baby
DR11      -0.02 dB   -12.52 dB      3:05 04-We Got Latin Soul
DR11      -0.02 dB   -13.25 dB      3:14 05-Getting It Out of My System
DR11      -0.06 dB   -13.08 dB      3:38 06-Proud Mary
DR10      -0.08 dB   -12.20 dB      2:57 07-It's Your Thing
DR10      -0.03 dB   -12.60 dB      3:09 08-My Cherie Amour
DR11      -0.02 dB   -13.56 dB      2:55 09-Get Back
DR10      -0.32 dB   -12.08 dB      2:47 10-Ain't That Peculiar
DR11      -0.02 dB   -12.89 dB      2:23 11-Twenty-Five Miles
--------------------------------------------------------------------------------

Number of tracks:  11
Official DR value: DR11

Samplerate:        96000 Hz
Channels:          2
Bits per sample:   24
Bitrate:           3228 kbps
Codec:             FLAC
================================================================================
Приватный:
Нет (DHT включён)
Размер:
753.76 Мб (790,371,585 байт) » файлов: 13
Участники:
4 раздают, 1 качают (5 участников всего)
Внешние участники:
--- [ Обновить ]
Есть вопросы - пишите личное сообщение пользователю M0p94ok.
19:36
17
Нет комментариев. Ваш будет первым!