Поиск

2019 Markus Howell - Get Right! {Posi-Tone} [24-88,2]

2019 Markus Howell - Get Right! {Posi-Tone} [24-88,2]
Дата записи диска:
17 сентября 2018
Место записи:
Acoustic Recording Brooklyn, NY
Треклист:

01. Get Right! [4:56]
02. One for Craig [6:22]
03. Warfare [5:05]
04. Dear Sir [5:41]
05. Out of the Night [4:16]
06. Glory Days [5:14]
07. Bruh Slim [5:00]
08. Inner Being [7:28]
09. Faithful [5:17]
10. Blues for WJ [5:00]

Доп. инфо:

Формат записи/Источник записи: [TR24][OF]
Наличие водяных знаков: Нет
Год издания/переиздания диска: 2019
Издатель (лейбл): Posi-Tone Record
Продолжительность: 00:54:20
Наличие сканов в содержимом раздачи: Нет

Контейнер: FLAC (*.flac)
Тип рипа: tracks
Разрядность: 24/88,2
Формат: PCM
Количество каналов: 2.0

Источник (релизер):qobuz.com redacted.ch (Anakunda)

Лог проверки качества
foobar2000 1.4.5 / Dynamic Range Meter 1.1.1
log date: 2019-06-28 19:59:00

--------------------------------------------------------------------------------
Analyzed: Markus Howell / Get Right!
--------------------------------------------------------------------------------

DR         Peak         RMS     Duration Track
--------------------------------------------------------------------------------
DR9       -0.98 dB   -11.90 dB      4:56 01-Get Right!
DR10      -0.98 dB   -12.93 dB      6:22 02-One for Craig
DR10      -0.98 dB   -12.57 dB      5:05 03-Warfare
DR10      -0.98 dB   -14.02 dB      5:41 04-Dear Sir
DR10      -0.98 dB   -13.58 dB      4:16 05-Out of the Night
DR9       -0.98 dB   -11.58 dB      5:14 06-Glory Days
DR10      -0.98 dB   -13.61 dB      5:00 07-Bruh Slim
DR9       -0.98 dB   -12.62 dB      7:28 08-Inner Being
DR12      -0.98 dB   -16.59 dB      5:17 09-Faithful
DR10      -0.98 dB   -12.79 dB      5:00 10-Blues for WJ
--------------------------------------------------------------------------------

Number of tracks:  10
Official DR value: DR10

Samplerate:        88200 Hz
Channels:          2
Bits per sample:   24
Bitrate:           2897 kbps
Codec:             FLAC
================================================================================
Приватный:
Нет (DHT включён)
Размер:
1.07 Гб (1,146,361,426 байт) » файлов: 15
Участники:
0 раздают, 0 качают (0 участников всего)
Внешние участники:
8 раздают, 2 качают (10 участников всего) [ Обновить ]
Есть вопросы - пишите личное сообщение пользователю M0p94ok.
19:13
18
Нет комментариев. Ваш будет первым!