Поиск

1975 Michael Naura - Vanessa (2019) {ECM} [24-96]

1975 Michael Naura - Vanessa (2019) {ECM} [24-96]
Дата записи диска:
сентябрь 1974
Место записи:
Windrose Studios, Hamburg
Дата издания диска:
1 марта 1975
Дата переиздания диска:
2 августа 2019
Издатель (лейбл):
Номер по каталогу:
1053
Носитель:
WEB
Формат:
PCM
Тип рипа:
tracks
Контейнер:
FLAC (*.flac)
Количество каналов:
2.0
Разрядность/ЧД:
24/96
Время звучания:
00:37:14
Наличие сканов:
только обложка
Наличие водяных знаков:
нет
Страна-производитель диска (релиза):
Germany
Релизёр (источник):
M0p94ok
Треклист:

1. Salvatore  11:46
2. Hills  02:43
3. Baboon  03:21
4. Vanessa  05:59
5. Listen To Me  06:36
6. Black Pigeon  06:49

Лог проверки качества
foobar2000 1.4.3 / Dynamic Range Meter 1.1.1
log date: 2020-02-26 18:11:27

--------------------------------------------------------------------------------
Analyzed: Michael Naura / Vanessa
--------------------------------------------------------------------------------

DR         Peak         RMS     Duration Track
--------------------------------------------------------------------------------
DR11      -2.03 dB   -17.36 dB     11:46 01-Salvatore
DR10      -1.52 dB   -14.33 dB      2:44 02-Hills
DR12      -2.14 dB   -18.29 dB      3:21 03-Baboon
DR10      -3.43 dB   -18.07 dB      5:59 04-Vanessa
DR12      -1.19 dB   -16.86 dB      6:36 05-Listen To Me
DR11      -2.19 dB   -16.68 dB      6:50 06-Black Pigeon
--------------------------------------------------------------------------------

Number of tracks:  6
Official DR value: DR11

Samplerate:        96000 Hz
Channels:          2
Bits per sample:   24
Bitrate:           2734 kbps
Codec:             FLAC
================================================================================
Приватный:
Нет (DHT включён)
Размер:
706.03 Мб (740,325,130 байт) » файлов: 8
Участники:
4 раздают, 1 качают (5 участников всего)
Внешние участники:
--- [ Обновить ]
Есть вопросы - пишите личное сообщение пользователю M0p94ok.
18:24
19
Нет комментариев. Ваш будет первым!