Поиск

1960 Charlie Byrd - The Guitar Artistry of Charlie Byrd (2019) {RevOla} [24-44,1]

1960 Charlie Byrd - The Guitar Artistry of Charlie Byrd (2019) {RevOla} [24-44,1]
Стили:
Треклист:

01 - Taking A Chance On Love 02:01
02 - Moonlight In Vermont 02:55
03 - Speak Low 03:46
04 - Nuages 03:03
05 - Everything I've Got 02:22
06 - Makin' Whoopee 02:45
07 - Django 03:25
08 - Nice Work If You Can Get It 01:48
09 - The House Of The Rising Sun 05:30
10 - Ring Them Harmonics 03:51
11 - Taboo 09:44
12 - To Ginny 05:25

Доп. инфо:

Формат записи/Источник записи: [TR24][OF]
Издание: Remastered
Год издания/переиздания диска: 1960/2019
Издатель (лейбл): RevOla
Продолжительность: 00:46:35
Наличие сканов в содержимом раздачи: Нет

Контейнер: FLAC (*.flac)
Тип рипа: tracks
Разрядность: 24/44,1
Количество каналов: 2.0

Источник (релизер): Qobuz

Лог проверки качества
foobar2000 1.4.3 / Dynamic Range Meter 1.1.1
log date: 2020-01-17 19:31:57

--------------------------------------------------------------------------------
Analyzed: Charlie Byrd / The Guitar Artistry of Charlie Byrd
--------------------------------------------------------------------------------

DR         Peak         RMS     Duration Track
--------------------------------------------------------------------------------
DR15      -3.19 dB   -22.64 dB      2:01 01-Taking A Chance On Love
DR13      -6.24 dB   -23.50 dB      2:55 02-Moonlight In Vermont
DR16      -0.70 dB   -22.10 dB      3:47 03-Speak Low
DR12      -5.11 dB   -23.13 dB      3:04 04-Nuages
DR16      -1.08 dB   -19.94 dB      2:22 05-Everything I've Got
DR15      -4.14 dB   -25.09 dB      2:45 06-Makin' Whoopee
DR16      -0.98 dB   -22.11 dB      3:26 07-Django
DR15      -3.18 dB   -20.83 dB      1:49 08-Nice Work If You Can Get It
DR15      -2.39 dB   -23.23 dB      5:30 09-The House Of The Rising Sun
DR14      -4.26 dB   -22.20 dB      3:51 10-Ring Them Harmonics
DR14      -2.48 dB   -22.36 dB      9:44 11-Taboo
DR16      -5.12 dB   -26.53 dB      5:25 12-To Ginny
--------------------------------------------------------------------------------

Number of tracks:  12
Official DR value: DR15

Samplerate:        44100 Hz
Channels:          2
Bits per sample:   24
Bitrate:           1313 kbps
Codec:             FLAC
================================================================================
Приватный:
Нет (DHT включён)
Размер:
459.27 Мб (481,580,395 байт) » файлов: 16
Участники:
0 раздают, 1 качают (1 участников всего)
Внешние участники:
9 раздают, 3 качают (12 участников всего) [ Обновить ]
Есть вопросы - пишите личное сообщение пользователю M0p94ok.
18:00
20
Нет комментариев. Ваш будет первым!