Поиск

2018 Michael Bublé - Love (Deluxe) {Reprise} [24-96]

2018 Michael Bublé - Love (Deluxe) {Reprise} [24-96]
Стили:
Издатель (лейбл):
Номер по каталогу:
9362-49028-7
Носитель:
WEB
Формат:
PCM
Тип рипа:
tracks
Контейнер:
FLAC (*.flac)
Количество каналов:
2.0
Разрядность/ЧД:
24/96
Время звучания:
00:45:04
Наличие сканов:
только обложка
Наличие водяных знаков:
нет
Страна-производитель диска (релиза):
Canada
Релизёр (источник):
M0p94ok

Треклист:

01. When I Fall in Love (4:03)
02. I Only Have Eyes for You (3:23)
03. Love You Anymore (3:03)
04. La vie en rose (3:50)
05. My Funny Valentine (4:26)
06. Such a Night (3:17)
07. Forever Now (3:40)
08. Help Me Make It Through the Night (3:42)
09. Unforgettable (3:08)
10. When You're Smiling (2:51)
11. Where or When (3:06)
12. When You're Not Here (3:38)
13. I Get a Kick Out of You (2:57)

Лог проверки качества
foobar2000 1.3.16 / Dynamic Range Meter 1.1.1
log date: 2018-11-16 03:25:30

--------------------------------------------------------------------------------
Analyzed: Michael Buble feat. Cecile McLorin Salvant / love(Deluxe) (1)
          Michael Buble feat. Loren Allred / love(Deluxe) (2)
          Michael Buble / love(Deluxe) (3-13)
--------------------------------------------------------------------------------

DR         Peak         RMS     Duration Track
--------------------------------------------------------------------------------
DR6       -0.01 dB    -9.01 dB      3:50 04-La vie en rose
DR5       -0.01 dB    -6.79 dB      3:42 08-Help Me Make It Through the Night
DR5       -0.01 dB    -7.79 dB      4:04 01-When I Fall in Love
DR5       -0.01 dB    -7.83 dB      3:23 02-I Only Have Eyes for You
DR5       -0.01 dB    -7.74 dB      3:03 03-Love You Anymore
DR4       -0.01 dB    -7.43 dB      4:26 05-My Funny Valentine
DR5       -0.01 dB    -6.09 dB      3:17 06-Such a Night
DR5       -0.01 dB    -7.40 dB      3:40 07-Forever Now
DR5       -0.01 dB    -7.17 dB      3:08 09-Unforgettable
DR4       -0.01 dB    -6.11 dB      2:51 10-When You're Smiling
DR5       -0.01 dB    -8.73 dB      3:06 11-Where or When
DR9       -0.01 dB   -11.07 dB      3:38 12-When You're Not Here
DR5       -0.01 dB    -7.18 dB      2:57 13-I Get a Kick Out of You
--------------------------------------------------------------------------------

Number of tracks:  13
Official DR value: DR5

Samplerate:        96000 Hz
Channels:          2
Bits per sample:   24
Bitrate:           2970 kbps
Codec:             FLAC
================================================================================
Приватный:
Нет (DHT включён)
Размер:
904.39 Мб (948,322,982 байт) » файлов: 15
Участники:
9 раздают, 1 качают (10 участников всего)
Внешние участники:
--- [ Обновить ]
Скорость:
0/c 1.97 Кб/c
No seeders - write a personal message to user M0p94ok. Нет сидеров - пишите личное сообщение пользователю M0p94ok.
16:20
45
Нет комментариев. Ваш будет первым!