Поиск

2018 Master Oogway - The Concert Koān {Clean Feed} [24-44,1]

2018 Master Oogway - The Concert Koān {Clean Feed} [24-44,1]
Дата издания диска:
28 сентября 2018
Издатель (лейбл):
Номер по каталогу:
CF490LP
Носитель:
WEB
Формат:
PCM
Тип рипа:
tracks
Контейнер:
FLAC (*.flac)
Количество каналов:
2.0
Разрядность/ЧД:
24/44,1
Время звучания:
00:34:54
Наличие сканов:
только обложка
Наличие водяных знаков:
нет
Страна-производитель диска (релиза):
Portugal
Релизёр (источник):
M0p94ok

Треклист:

1. Eddapliks I/Kan vi flytte til Mars? 07:46    
2. Mørk materie 09:14    
3. Eddapliks II 02:07    
4. Master Oogway Theme Song 04:50    
5. That Gum You Like 06:21    
6. The Concert Koān/Eddapliks III 04:36

Лог проверки качества
foobar2000 1.3.16 / Dynamic Range Meter 1.1.1
log date: 2018-11-25 23:43:48

--------------------------------------------------------------------------------
Analyzed: Master Oogway / The Concert Koān
--------------------------------------------------------------------------------

DR         Peak         RMS     Duration Track
--------------------------------------------------------------------------------
DR7       -0.91 dB    -8.54 dB      7:47 01-Eddapliks, Pt.1/Kan vi flytte til Mars?
DR7       -0.80 dB   -10.19 dB      9:14 02-Mork materie
DR9       -1.01 dB   -13.70 dB      2:08 03-Eddapliks, Pt.2
DR7       -0.97 dB    -9.35 dB      4:50 04-Master Oogway Theme Song
DR7       -0.81 dB    -9.33 dB      6:22 05-That Gum You Like
DR7       -0.90 dB    -8.96 dB      4:36 06-The Concert Koan/Eddapliks, Pt.3
--------------------------------------------------------------------------------

Number of tracks:  6
Official DR value: DR7

Samplerate:        44100 Hz
Channels:          2
Bits per sample:   24
Bitrate:           1657 kbps
Codec:             FLAC
================================================================================
Приватный:
Нет (DHT включён)
Размер:
407.76 Мб (427,567,211 байт) » файлов: 8
Участники:
4 раздают, 1 качают (5 участников всего)
Внешние участники:
--- [ Обновить ]
Скорость:
1.15 Мб/c 0/c
Есть вопросы - пишите личное сообщение пользователю M0p94ok.
01:12
23
Нет комментариев. Ваш будет первым!