Поиск

2016 Piers Faccini & Dawn Landes - Desert Songs {Beating Drum} [24-44,1]

2016 Piers Faccini & Dawn Landes - Desert Songs {Beating Drum} [24-44,1]
Стили:
Треклист:

1. Heaven's Gate (03:09)
2. We Come and Go (04:04)
3. Book of Dreams (02:26)
4. Crying Out Loud (03:15)
5. I Hear a Calling (03:17)

Доп. инфо:

Формат записи/Источник записи: [TR24][OF]
Наличие водяных знаков: Нет
Год издания/переиздания диска: 2016
Издатель (лейбл): Beating Drum
Продолжительность: 00:16:12
Наличие сканов в содержимом раздачи: Только обложка альбома
Источник (релизер): qobuz

Контейнер: FLAC (*.flac)
Тип рипа: tracks
Разрядность: 24/44,1
Формат: PCM
Количество каналов: 2.0

Лог проверки качества
foobar2000 1.1.15 / Dynamic Range Meter 1.1.1
log date: 2020-01-17 12:39:26

--------------------------------------------------------------------------------
Analyzed: Piers Faccini / Desert Songs
--------------------------------------------------------------------------------

DR         Peak         RMS     Duration Track
--------------------------------------------------------------------------------
DR9       -0.20 dB   -10.74 dB      3:09 01-Heaven's Gate
DR8       -0.20 dB    -9.56 dB      4:05 02-We Come and Go
DR11      -0.36 dB   -13.63 dB      2:26 03-Book of Dreams
DR9       -0.20 dB   -11.84 dB      3:15 04-Crying Out Loud
DR11      -0.20 dB   -12.52 dB      3:18 05-I Hear a Calling
--------------------------------------------------------------------------------

Number of tracks:  5
Official DR value: DR9

Samplerate:        44100 Hz
Channels:          2
Bits per sample:   24
Bitrate:           1501 kbps
Codec:             FLAC
================================================================================
Приватный:
Нет (DHT включён)
Размер:
182.58 Мб (191,445,074 байт) » файлов: 8
Участники:
2 раздают, 1 качают (3 участников всего)
Внешние участники:
9 раздают, 3 качают (12 участников всего) [ Обновить ]
Скорость:
250.84 Кб/c 0/c
Есть вопросы - пишите личное сообщение пользователю M0p94ok.
23:43
23
Нет комментариев. Ваш будет первым!