Поиск

1976 Om - Kirikuki (2019) {ECM} [24-96]

1976 Om - Kirikuki (2019) {ECM} [24-96]
Дата записи диска:
1-2 октября 1975
Место записи:
Ludwigsburg, Tonstudio Bauer
Дата переиздания диска:
2 августа 2019
Издатель (лейбл):
Носитель:
WEB
Формат:
PCM
Тип рипа:
tracks
Контейнер:
FLAC (*.flac)
Количество каналов:
2.0
Разрядность/ЧД:
24/96
Время звучания:
00:40:33
Наличие сканов:
только обложка
Наличие водяных знаков:
нет
Страна-производитель диска (релиза):
Germany
Релизёр (источник):
M0p94ok

Треклист:

1. Holly  08:42
2. Lips  05:23
3. Karpfenteich  06:07
4. Hommage à Mme. Stirnimaa  16:01
5. Sykia  04:20

Лог проверки качества
foobar2000 1.4.3 / Dynamic Range Meter 1.1.1
log date: 2020-02-26 22:44:14

--------------------------------------------------------------------------------
Analyzed: Om / Kirikuki
--------------------------------------------------------------------------------

DR         Peak         RMS     Duration Track
--------------------------------------------------------------------------------
DR11      -0.84 dB   -15.12 dB      8:42 01-Holly
DR11      -1.82 dB   -16.98 dB      5:24 02-Lips
DR12      -0.72 dB   -16.64 dB      6:07 03-Karpfenteich
DR12      -1.47 dB   -16.94 dB     16:01 04-Hommage à Mme. Stirnimaa
DR12      -0.37 dB   -15.65 dB      4:21 05-Sykia
--------------------------------------------------------------------------------

Number of tracks:  5
Official DR value: DR12

Samplerate:        96000 Hz
Channels:          2
Bits per sample:   24
Bitrate:           2949 kbps
Codec:             FLAC
================================================================================
Приватный:
Нет (DHT включён)
Размер:
835.26 Мб (875,834,194 байт) » файлов: 7
Участники:
4 раздают, 1 качают (5 участников всего)
Внешние участники:
--- [ Обновить ]
Есть вопросы - пишите личное сообщение пользователю M0p94ok.
23:38
27
Нет комментариев. Ваш будет первым!