Поиск

1961 Cal Tjader - Black Hawk Nights (2019) {RevOla} [24-44,1]

1961 Cal Tjader - Black Hawk Nights (2019) {RevOla} [24-44,1]
Стили:
Треклист:

01 - Stompin' at the Savoy 05:23
02 - I Hadn't Anyone Till You 08:08
03 - Bill B. 12:05
04 - Blue and Sentimental 03:05
05 - I Love Paris 04:34
06 - A Night in Tunisia 09:15
07 - Autumn Leaves 08:40
08 - My Romance 05:11
09 - Theme from 'The Bad and the Beautiful' 03:46
10 - You Stepped Out of a Dream 05:30
11 - Raccoon Straits 06:19
12 - Mambo Terrifico 04:23

Доп. инфо:

Формат записи/Источник записи: [TR24][OF]
Издание: Remastered
Год издания/переиздания диска: 1959-1961/2019
Издатель (лейбл): RevOla
Продолжительность: 01:16:19
Наличие сканов в содержимом раздачи: Нет

Контейнер: FLAC (*.flac)
Тип рипа: tracks
Разрядность: 24/44,1
Количество каналов: 2.0

Источник (релизер): Qobuz

Лог проверки качества
foobar2000 1.3.16 / Dynamic Range Meter 1.1.1
log date: 2019-01-05 22:59:14

--------------------------------------------------------------------------------
Analyzed: Cal Tjader / Black Hawk Nights
--------------------------------------------------------------------------------

DR         Peak         RMS     Duration Track
--------------------------------------------------------------------------------
DR13      -1.60 dB   -17.53 dB      5:23 01-Stompin' at the Savoy (Remastered)
DR14      -2.91 dB   -22.43 dB      8:08 02-I Hadn't Anyone Till You (Remastered)
DR16      -0.02 dB   -23.27 dB     12:06 03-Bill B. (Remastered)
DR13      -3.68 dB   -20.17 dB      3:05 04-Blue and Sentimental (Remastered)
DR13      -2.30 dB   -17.98 dB      4:34 05-I Love Paris (Remastered)
DR14      -2.16 dB   -19.27 dB      9:15 06-A Night in Tunisia (Remastered)
DR15      -4.57 dB   -23.43 dB      8:40 07-Autumn Leaves (Remastered)
DR16      -2.77 dB   -24.33 dB      5:11 08-My Romance (Remastered)
DR15      -7.03 dB   -26.84 dB      3:46 09-Theme from 'The Bad and the Beautiful' (Remastered)
DR16      -2.77 dB   -23.93 dB      5:31 10-You Stepped Out of a Dream (Remastered)
DR15      -3.86 dB   -21.58 dB      6:19 11-Raccoon Straits (Remastered)
DR14      -1.88 dB   -19.24 dB      4:23 12-Mambo Terrifico (Remastered)
--------------------------------------------------------------------------------

Number of tracks:  12
Official DR value: DR15

Samplerate:        44100 Hz
Channels:          2
Bits per sample:   24
Bitrate:           1474 kbps
Codec:             FLAC
================================================================================
Приватный:
Нет (DHT включён)
Размер:
800.63 Мб (839,526,448 байт) » файлов: 19
Участники:
1 раздают, 1 качают (2 участников всего)
Внешние участники:
3 раздают, 1 качают (4 участников всего) [ Обновить ]
Есть вопросы - пишите личное сообщение пользователю M0p94ok.
12:21
25
Нет комментариев. Ваш будет первым!