Поиск

2014 Caroll Vanwelden - Sings Shakespeare Sonnets 2 {Jazz'n'Arts JNA 7014} [24-96]

2014 Caroll Vanwelden - Sings Shakespeare Sonnets 2 {Jazz'n'Arts JNA 7014} [24-96]
Стили:
Номер по каталогу:
JNA 7014
Носитель:
WEB
Формат:
PCM
Тип рипа:
tracks
Контейнер:
FLAC (*.flac)
Количество каналов:
2.0
Разрядность/ЧД:
24/96
Время звучания:
00:59:25
Наличие сканов:
только обложка
Наличие водяных знаков:
нет
Страна-производитель диска (релиза):
Belgium
Релизёр (источник):
M0p94ok

Треклист:

01    Let Those Who Are In Favour    4:08
02    If My Dear Love    3:16
03    Since Brass Nor Stone    6:04
04    O, From What Power    4:19
05    When In The Chronicle Of Wasted Time    2:52
06    So IS It Not With Me As With That Muse    4:08
07    I Never SAW That You Did Painting Need    3:36
08    How Oft, When Thou, My Music Play'st    4:38
09    Betwixt Mine Eye And Heart    2:18
10    Those Lips    3:30
11    Those Lines That I Before Have Writ Do Lie    3:35
12    O, Call Not Me To Justify The Wrong    4:17
13    Thy Gift, Thy Tables, Are Within My Brain    3:32
14    Against That Time    3:16
15    The Little Love-God    3:11
16    My Love Is A Fever    2:49

Лог проверки качества
foobar2000 1.4.3 / Dynamic Range Meter 1.1.1
log date: 2020-02-27 13:12:02

--------------------------------------------------------------------------------
Analyzed: Caroll Vanwelden / Shakespeare Sonnets 2
--------------------------------------------------------------------------------

DR         Peak         RMS     Duration Track
--------------------------------------------------------------------------------
DR7       -0.12 dB   -10.72 dB      4:08 01-Let those who are in favour
DR10      -0.12 dB   -11.12 dB      3:16 02-If my dear Love
DR10      -0.12 dB   -13.21 dB      6:04 03-Since Brass nor Stone
DR10      -0.12 dB   -13.13 dB      4:20 04-O From what Power
DR10      -0.12 dB   -11.87 dB      2:52 05-When in the chronical
DR10      -0.12 dB   -13.22 dB      4:09 06-So is it not with me
DR10      -0.12 dB   -11.74 dB      3:36 07-I never saw that you did painting need
DR12      -0.12 dB   -15.71 dB      4:40 08-How oft when thou my music
DR11      -0.12 dB   -14.34 dB      2:18 09-Betwixt mine eye
DR9       -0.12 dB   -11.61 dB      3:30 10-Those Lips that Loves own Hands
DR11      -0.12 dB   -14.48 dB      3:35 11-Those Lines
DR10      -0.12 dB   -13.25 dB      4:17 12-O Call not me to justify
DR10      -0.12 dB   -12.45 dB      3:32 13-Thy Gift, thy Tables
DR11      -0.12 dB   -13.96 dB      3:18 14-Against that Time
DR8       -0.12 dB   -11.17 dB      3:11 15-The little Love God
DR12      -0.12 dB   -16.61 dB      2:49 16-My love
--------------------------------------------------------------------------------

Number of tracks:  16
Official DR value: DR10

Samplerate:        96000 Hz
Channels:          2
Bits per sample:   24
Bitrate:           2645 kbps
Codec:             FLAC
================================================================================
Приватный:
Нет (DHT включён)
Размер:
1.21 Гб (1,296,177,852 байт) » файлов: 19
Участники:
3 раздают, 1 качают (4 участников всего)
Внешние участники:
--- [ Обновить ]
Есть вопросы - пишите личное сообщение пользователю M0p94ok.
13:19
23
Нет комментариев. Ваш будет первым!