Поиск

2016 Koki Nakano & Vincent Segal - Lift {Nø Førmat!} [24-96]

2016 Koki Nakano & Vincent Segal - Lift {Nø Førmat!} [24-96]
Треклист:

01. Petite piece pour un inconnu (5:09)
02. Silhouette (5:34)
03. Supposed to Be a Mistake (8:42)
04. D'un pas habile (6:06)
05. Introduction I (4:09)
06. Pendulum (5:12)
07. A Lady Just Quit Smoking (6:38)
08. Une fin d'ete ensoleillee (5:01)
09. Lift (4:08)

Доп. инфо:

Формат записи/Источник записи: [TR24][OF]
Наличие водяных знаков: Нет
Год издания/переиздания диска: 2016
Издатель (лейбл): Nø Førmat!
Продолжительность: 00:50:39
Наличие сканов в содержимом раздачи: Да (сканы)
Источник (релизер): highresaudio

Контейнер: FLAC (*.flac)
Тип рипа: tracks
Разрядность: 24/96
Формат: PCM
Количество каналов: 2.0

http://kokinakano.com/
http://www.noformat.net/album-koki-nakano-lift-51.html

Лог проверки качества
foobar2000 1.4 / Dynamic Range Meter 1.1.1
log date: 2019-09-05 09:05:57

--------------------------------------------------------------------------------
Analyzed: Koki Nakano / Lift
--------------------------------------------------------------------------------

DR         Peak         RMS     Duration Track
--------------------------------------------------------------------------------
DR11      -0.01 dB   -15.54 dB      5:09 01-Petite pièce pour un inconnu
DR10      -0.01 dB   -14.43 dB      5:34 02-Silhouette
DR9       -0.01 dB   -13.47 dB      8:42 03-Supposed to Be a Mistake
DR14      -0.01 dB   -18.32 dB      6:06 04-D'un pas habile
DR11      -0.01 dB   -14.14 dB      4:09 05-Introduction I
DR11      -0.01 dB   -16.71 dB      5:12 06-Pendulum
DR10      -0.01 dB   -14.29 dB      6:38 07-A Lady Just Quit Smoking
DR10      -0.01 dB   -13.76 dB      5:01 08-Une fin d'été ensoleillée
DR9       -0.01 dB   -12.83 dB      4:08 09-Lift
--------------------------------------------------------------------------------

Number of tracks:  9
Official DR value: DR11

Samplerate:        96000 Hz
Channels:          2
Bits per sample:   24
Bitrate:           2616 kbps
Codec:             FLAC
================================================================================
Приватный:
Нет (DHT включён)
Размер:
985.36 Мб (1,033,226,285 байт) » файлов: 21
Участники:
0 раздают, 1 качают (1 участников всего)
Внешние участники:
8 раздают, 2 качают (10 участников всего) [ Обновить ]
Скорость:
3.70 Мб/c 0/c
Есть вопросы - пишите личное сообщение пользователю M0p94ok.
13:55
25
Нет комментариев. Ваш будет первым!