Поиск

2018 Papik - Papik Presents: Cocktail Italy, Vol. 1 {Irma IRM 1755} [24-44,1]

2018 Papik - Papik Presents: Cocktail Italy, Vol. 1 {Irma IRM 1755} [24-44,1]
Стили:
Номер по каталогу:
Irma IRM 1755
Носитель:
WEB
Формат:
PCM
Тип рипа:
tracks
Контейнер:
FLAC (*.flac)
Количество каналов:
2.0
Разрядность/ЧД:
24/44,1
Время звучания:
01:00:16
Наличие сканов:
только обложка
Наличие водяных знаков:
нет
Страна-производитель диска (релиза):
Italy
Релизёр (источник):
M0p94ok
Треклист:

01. Stasera che sera - Vittoria Siggillino  03:21
02. Questione di feeling - Frankie Lovecchio, Stefy Gamboni  03:31
03. L' appuntamento - Francesca Gramegna  05:13
04. Balliamo - Paco Di Maso  03:21
05. Non gioco più - Stefy Gamboni  02:48
06. Dolcissima - Frankie Lovecchio, Letizia Liberati  03:38
07. Sassi - Alessandro Pitoni  04:35
08. E la vita la vita - Stefano Fresi, Tony Fornari  03:05
09. Portati via - Stefy Gamboni  03:54
10. Il mio canto libero - Greta Mirall  03:55
11. Stella - Vittoria Siggillino  03:38
12. Vento di passione - Daniela Fiorentino  04:15
13. L'avventura - Frankie & Canthina Band  03:29
14. Ci penserò domani - Alan Scaffardi  05:32
15. Io domani - Stefy Gamboni  03:21
16. Mi sono innamorato di te - Alan Scaffardi  02:40

Лог проверки качества
foobar2000 1.3.16 / Dynamic Range Meter 1.1.1
log date: 2018-11-24 01:58:06

--------------------------------------------------------------------------------
Analyzed: Papik / Cocktail Italy, Vol. 1 (Papik Presents)
--------------------------------------------------------------------------------

DR         Peak         RMS     Duration Track
--------------------------------------------------------------------------------
DR8       -1.01 dB   -10.43 dB      3:22 01-Stasera che sera (feat. Vittoria Siggillino)
DR9       -1.01 dB   -11.92 dB      3:32 02-Questione di feeling (feat. Stefy Gamboni, Frankie Lovecchio)
DR10      -1.01 dB   -12.24 dB      5:14 03-L' appuntamento (feat. Francesca Gramegna)
DR8       -1.01 dB    -9.87 dB      3:22 04-Balliamo (feat. Paco Di Maso)
DR9       -1.01 dB   -11.29 dB      2:48 05-Non gioco piu (feat. Stefy Gamboni)
DR8       -1.01 dB   -10.58 dB      3:38 06-Dolcissima (feat. Letizia Liberati, Frankie Lovecchio)
DR9       -1.01 dB   -12.43 dB      4:35 07-Sassi (feat. Alessandro Pitoni)
DR8       -1.01 dB    -9.91 dB      3:06 08-E la vita la vita (feat. Tony Fornari, Stefano Fresi)
DR8       -1.01 dB   -11.47 dB      3:55 09-Portati via (feat. Stefy Gamboni)
DR10      -1.01 dB   -12.56 dB      3:55 10-Il mio canto libero (feat. Greta Mirall)
DR9       -1.01 dB   -11.48 dB      3:38 11-Stella (feat. Vittoria Siggillino)
DR8       -1.01 dB   -10.21 dB      4:16 12-Vento di passione (feat. Daniela Fiorentino)
DR9       -1.01 dB   -11.01 dB      3:29 13-L'avventura (feat. Frankie & Canthina Band)
DR8       -1.01 dB   -10.38 dB      5:32 14-Ci pensero domani (feat. Alan Scaffardi)
DR8       -1.01 dB   -11.27 dB      3:21 15-Io domani (feat. Stefy Gamboni)
DR11      -1.01 dB   -14.22 dB      2:40 16-Mi sono innamorato di te (feat. Alessandro Pitoni)
--------------------------------------------------------------------------------

Number of tracks:  16
Official DR value: DR9

Samplerate:        44100 Hz
Channels:          2
Bits per sample:   24
Bitrate:           1337 kbps
Codec:             FLAC
================================================================================
Приватный:
Нет (DHT включён)
Размер:
671.52 Мб (704,143,299 байт) » файлов: 18
Участники:
3 раздают, 3 качают (6 участников всего)
Внешние участники:
--- [ Обновить ]
Скорость:
1.57 Мб/c 0/c
Есть вопросы - пишите личное сообщение пользователю M0p94ok.
16:11
28
Нет комментариев. Ваш будет первым!