Поиск

2016 Daniel Melingo (Melingo) - Anda {World Village} [24-44,1]

2016 Daniel Melingo (Melingo) - Anda {World Village} [24-44,1]
Стили:
Треклист:

01. Se viene el dos mil (04:54)
02. A lo Megata (02:09)
03. Igualito que el tango (02:43)
04. Sol tropical (04:03)
05. Volando entre las nubes (05:20)
06. En un bosque de la China (02:28)
07. Intoxicated Man (03:50)
08. Gnossienne (03:27)
09. Espiral (03:39)
10. Anda (05:31)
11. Anda simultáneo (05:36)

Доп. инфо:

Формат записи/Источник записи: [TR24][OF]
Наличие водяных знаков: Нет
Год издания/переиздания диска: 2016
Издатель (лейбл): World Village
Продолжительность: 00:43:38
Наличие сканов в содержимом раздачи: Буклет PDF
Источник (релизер): qobuz

Контейнер: FLAC (*.flac)
Тип рипа: tracks
Разрядность: 24/44,1
Формат: PCM
Количество каналов: 2.0

Доп. информация: http://www.danielmelingo.com

Лог проверки качества
foobar2000 1.1.15 / Dynamic Range Meter 1.1.1
log date: 2020-01-21 12:21:04

--------------------------------------------------------------------------------
Analyzed: Melingo / Anda
--------------------------------------------------------------------------------

DR         Peak         RMS     Duration Track
--------------------------------------------------------------------------------
DR10      -0.01 dB   -14.21 dB      4:53 01-Se viene el dos mil
DR9       -0.01 dB   -11.65 dB      2:09 02-A lo Megata
DR9       -0.01 dB   -11.43 dB      2:43 03-Igualito que el tango
DR10      -0.01 dB   -12.26 dB      4:03 04-Sol tropical
DR9       -0.01 dB   -11.46 dB      5:20 05-Volando entre las nubes
DR10      -0.01 dB   -12.20 dB      2:28 06-En un bosque de la China
DR10      -0.06 dB   -12.37 dB      3:50 07-Intoxicated Man
DR10      -0.01 dB   -12.37 dB      3:27 08-Gnossienne
DR9       -0.61 dB   -11.41 dB      3:39 09-Espiral
DR13      -0.01 dB   -17.17 dB      5:31 10-Anda
DR8       -0.01 dB    -9.90 dB      5:36 11-Anda simultáneo
--------------------------------------------------------------------------------

Number of tracks:  11
Official DR value: DR10

Samplerate:        44100 Hz
Channels:          2
Bits per sample:   24
Bitrate:           1562 kbps
Codec:             FLAC
================================================================================
Приватный:
Нет (DHT включён)
Размер:
451.55 Мб (473,489,243 байт) » файлов: 15
Участники:
0 раздают, 2 качают (2 участников всего)
Внешние участники:
5 раздают, 2 качают (7 участников всего) [ Обновить ]
Скорость:
429.45 Кб/c 0/c
Есть вопросы - пишите личное сообщение пользователю M0p94ok.
16:59
21
Нет комментариев. Ваш будет первым!