Вы используете незарегистрированную версию компонента "Вкладки"!

Поиск

2020 VA - The Concert (20 Years Skip Records Live at Laeiszhalle Hamburg) {SKIP} [24-48]

2020 VA - The Concert (20 Years Skip Records Live at Laeiszhalle Hamburg) {SKIP} [24-48]
Битрейт аудио:
lossless
Доп. инфо:

Формат записи/Источник записи: [TR24][OF]
Наличие водяных знаков: Нет
Год издания: 2020
Издатель (лейбл): SKIP Records
Продолжительность: 02:19:38
Наличие сканов в содержимом раздачи: Только обложка альбома
Контейнер: FLAC (*.flac)
Тип рипа: tracks
Разрядность: 24/48
Формат: PCM
Количество каналов: 2.0
Источник (релизер): qobuz.com

Лог проверки качества
foobar2000 1.4.8 / Dynamic Range Meter 1.1.1
log date: 2020-05-30 18:03:30

--------------------------------------------------------------------------------
Analyzed: Skip Records 20 Years / The Concert
--------------------------------------------------------------------------------

DR         Peak         RMS     Duration Track
--------------------------------------------------------------------------------
DR10      -0.29 dB   -13.50 dB      8:49 01-Requiem (Live)
DR11      -0.30 dB   -13.85 dB      5:56 02-Leonard (Live)
DR9       -0.30 dB   -12.08 dB      6:59 03-Made in France (Live)
DR8       -0.23 dB   -11.14 dB     10:13 04-J.L. Swing (Live)
DR9       -0.31 dB   -13.68 dB      6:34 05-The Years (Live)
DR10      -0.24 dB   -15.63 dB      8:40 06-Grimsholmen (Live)
DR10      -0.28 dB   -15.03 dB      4:29 07-Du Haller Min Hand (Live)
DR10      -0.28 dB   -15.26 dB      7:14 08-A Day in Memories (Live)
DR10      -0.30 dB   -14.43 dB      5:42 09-La Terrazza (Live)
DR11      -0.30 dB   -15.01 dB      7:39 10-Isfahan (Live)
DR11      -0.30 dB   -15.52 dB      6:52 11-Good Morning Tokyo (Live)
DR8       -0.30 dB   -10.61 dB      3:23 12-I've Been a Fool (Live)
DR9       -0.29 dB   -12.80 dB      4:20 13-Freedom (Live)
DR7       -0.26 dB   -11.77 dB      3:31 14-Muevete en D (Live)
DR9       -0.21 dB   -12.40 dB      5:38 15-Angustiado (Live)
DR10      -0.22 dB   -14.37 dB      9:09 16-Alma (Live)
DR10      -0.31 dB   -16.21 dB      5:07 17-The Rocket (Live)
DR8       -0.26 dB   -11.42 dB      4:52 18-Karusellen (Live)
DR9       -0.28 dB   -13.58 dB      8:17 19-Mustasch (Live)
DR10      -0.30 dB   -14.67 dB      6:22 20-Vägen (Live)
DR8       -0.24 dB   -10.32 dB      7:35 21-Skansk Blues (Live)
DR11      -0.30 dB   -15.45 dB      2:31 22-One Moment in Time (Live)
--------------------------------------------------------------------------------

Number of tracks:  22
Official DR value: DR10
Samplerate:        48000 Hz
Channels:          2
Bits per sample:   24
Bitrate:           1088 kbps
Codec:             FLAC
================================================================================
Any questions - support@pro-jazz.com. Есть вопросы - support@pro-jazz.com
21:05
326
Нет комментариев. Ваш будет первым!