Вы используете незарегистрированную версию компонента "Вкладки"!

Поиск

2019 Black String – Karma {ACT Music 9045-2} [24-96]

2019 Black String – Karma {ACT Music 9045-2} [24-96]
Издатель (лейбл):
Номер по каталогу:
ACT 9045-2
Битрейт аудио:
lossless
Доп. инфо:

Формат записи/Источник записи: [TR24][OF]
Наличие водяных знаков: Нет
Год издания: 2019
Продолжительность: 00:52:18
Наличие сканов в содержимом раздачи: Буклет PDF
Источник (релизер): qobuz
Контейнер: FLAC (*.flac)
Тип рипа: tracks
Разрядность: 24/96
Формат: PCM
Количество каналов: 2.0

Лог проверки качества
foobar2000 1.3.7 / Dynamic Range Meter 1.1.1
log date: 2019-09-25 07:34:49

--------------------------------------------------------------------------------
Analyzed: Black String / Karma
--------------------------------------------------------------------------------

DR         Peak         RMS     Duration Track
--------------------------------------------------------------------------------
DR10      -0.10 dB   -13.53 dB      5:46 01-Sureña
DR9       -0.10 dB   -10.93 dB      9:11 02-Hanging Gardens of Babylon
DR9       -0.10 dB   -12.54 dB      4:09 03-Elevation of Light
DR9       -0.11 dB   -12.29 dB      5:11 04-Song of the Sea
DR9       -0.11 dB   -14.84 dB      3:53 05-Exit Music (For a Film)
DR6       -0.10 dB   -10.76 dB      4:49 06-Exhale-Puri
DR11      -0.12 dB   -13.64 dB      7:51 07-Karma
DR9       -0.10 dB   -12.25 dB      5:42 08-Beating Road
DR8       -0.10 dB   -11.37 dB      5:49 09-Blue Shade
--------------------------------------------------------------------------------

Number of tracks:  9
Official DR value: DR9

Samplerate:        96000 Hz
Channels:          2
Bits per sample:   24
Bitrate:           2644 kbps
Codec:             FLAC
================================================================================
Any questions - support@pro-jazz.com. Есть вопросы - support@pro-jazz.com
20:30
258
Нет комментариев. Ваш будет первым!