Вы используете незарегистрированную версию компонента "Вкладки"!

Поиск

2020 Larry Willis - I Fall in Love Too Easily {HighNote HCD7326} [24-44,1]

2020 Larry Willis - I Fall in Love Too Easily {HighNote HCD7326} [24-44,1]
Стили:
Издатель (лейбл):
Номер по каталогу:
HCD7326
Битрейт аудио:
lossless
Лог проверки качества
foobar2000 1.4.3 / Dynamic Range Meter 1.1.1
log date: 2020-05-29 16:26:39

--------------------------------------------------------------------------------
Analyzed: Larry Willis / I Fall in Love Too Easily (The Final Session at Rudy Van Gelder's)
--------------------------------------------------------------------------------

DR         Peak         RMS     Duration Track
--------------------------------------------------------------------------------
DR12      -0.70 dB   -13.93 dB      5:48 01-Today's Nights
DR11      -0.70 dB   -13.97 dB      3:41 02-Heavy Blue
DR13      -1.40 dB   -18.30 dB      6:09 03-Anna
DR11      -0.70 dB   -13.50 dB      6:21 04-Habiba
DR13      -0.88 dB   -17.80 dB      8:34 05-The Meaning of the Blues
DR14      -0.88 dB   -17.06 dB      8:11 06-Let's Play
DR12      -0.72 dB   -14.65 dB      5:54 07-Climax
DR13      -1.28 dB   -18.93 dB      5:55 08-I Fall in Love Too Easily
--------------------------------------------------------------------------------

Number of tracks:  8
Official DR value: DR12

Samplerate:        44100 Hz
Channels:          2
Bits per sample:   24
Bitrate:           1163 kbps
Codec:             FLAC
================================================================================
Any questions - support@pro-jazz.com. Есть вопросы - support@pro-jazz.com
13:59
257
Нет комментариев. Ваш будет первым!