Вы используете незарегистрированную версию компонента "Вкладки"!

Поиск

2019 Minua – Still Light {Traumton} [24-44,1]

2019 Minua – Still Light {Traumton} [24-44,1]
Стили:
Битрейт аудио:
lossless
Доп. инфо:

Формат записи/Источник записи: [TR24][OF]
Наличие водяных знаков: Нет
Год издания: 2019
Издатель (лейбл): Traumton
Продолжительность: 00:40:54
Наличие сканов в содержимом раздачи: Только обложка
Источник (релизер): qobuz
Контейнер: FLAC (*.flac)
Тип рипа: tracks
Разрядность: 24/44,1
Формат: PCM
Количество каналов: 2.0

Лог проверки качества
foobar2000 1.3.7 / Dynamic Range Meter 1.1.1
log date: 2019-01-31 21:53:18

--------------------------------------------------------------------------------
Analyzed: Minua / Still Light
--------------------------------------------------------------------------------

DR         Peak         RMS     Duration Track
--------------------------------------------------------------------------------
DR11      -1.51 dB   -16.67 dB      5:12 01-And After
DR10      -0.28 dB   -13.15 dB      4:26 02-Waterlines
DR10      -2.67 dB   -18.87 dB      2:47 03-Alight
DR10     -10.21 dB   -24.34 dB      4:31 04-Parallel Overpass
DR11      -4.56 dB   -20.04 dB      2:14 05-Jumps
DR9       -0.30 dB   -13.45 dB      3:21 06-Murmuration
DR10      -1.93 dB   -17.79 dB      5:33 07-October II
DR10      -3.42 dB   -17.74 dB      3:49 08-Heluxia
DR10      -3.23 dB   -16.87 dB      3:46 09-Lumen
DR10      -4.48 dB   -19.59 dB      5:18 10-Climber (1985)
--------------------------------------------------------------------------------

Number of tracks:  10
Official DR value: DR10

Samplerate:        44100 Hz
Channels:          2
Bits per sample:   24
Bitrate:           1284 kbps
Codec:             FLAC
================================================================================
Any questions - support@pro-jazz.com. Есть вопросы - support@pro-jazz.com
14:19
226
Нет комментариев. Ваш будет первым!