Вы используете незарегистрированную версию компонента "Вкладки"!

Поиск

2013 Eriko Shimizu & Strings 4 - Afterglow {UNAMAS} [DSD256]

2013 Eriko Shimizu & Strings 4 - Afterglow {UNAMAS} [DSD256]
Битрейт аудио:
lossless
Доп. инфо:

Формат записи/Источник записи: [DSD][OF]
Наличие водяных знаков: Нет
Год издания/переиздания диска: 2013 / 2018
Издатель (лейбл): UNAMAS
Продолжительность: 40:59
Наличие сканов в содержимом раздачи: Нет

Контейнер: DSF (*.dsf)
Тип рипа: tracks
Разрядность: 256 (11.2MHz/1bit)
Формат: DSD
Количество каналов: 2.0

Источник (релизер): https://hi-resmusic.sonyselect.kuke.com/page/album.html?id=2446

Лог проверки качества
foobar2000 1.4 / Dynamic Range Meter 1.1.1
log date: 2020-05-29 18:44:06
-------------------------------------------------------------------------------
Analyzed: Eriko Shimizu / Afterglow Eriko Shimizu&Strings4
-------------------------------------------------------------------------------
DR       Peak        RMS     Duration      Track
-------------------------------------------------------------------------------
DR12  -7.30 dB   -24.23 dB   6:42   01-Smoke Get's In Your Eyes
DR13  -7.30 dB   -24.50 dB   4:33   02-I 've Got A Crush On You
DR10  -7.30 dB   -21.76 dB   6:48   03-Afterglow~残照
DR13  -7.30 dB   -26.23 dB   3:29   04-Oborozukiyo
DR12  -7.30 dB   -22.92 dB   4:13   05-Someone To Light Up My Life
DR12  -7.30 dB   -22.92 dB   5:35   06-I Love You Porgy
DR12  -7.30 dB   -24.34 dB   4:51   07-A Ray Of Hope
DR13  -7.30 dB   -24.41 dB   4:49   08-Sora
-------------------------------------------------------------------------------
Number of tracks: 8
Official DR value: DR12

Samplerate: 11289600 Hz / PCM Samplerate: 176400 Hz
Channels: 2
Bits per sample: 1
Bitrate:  22579 kbps
Codec: DSD256
=================================================
Any questions - support@pro-jazz.com. Есть вопросы - support@pro-jazz.com
14:49
332
Нет комментариев. Ваш будет первым!