Вы используете незарегистрированную версию компонента "Вкладки"!

Поиск

2020 Tony Allen & Hugh Masekela - Rejoice {World Circuit} [24-96]

2020 Tony Allen & Hugh Masekela - Rejoice {World Circuit} [24-96]
Стили:
Битрейт аудио:
lossless
Доп. инфо:

Формат записи/Источник записи: [TR24][OF]
Наличие водяных знаков: Нет
Год издания: 2020
Издатель (лейбл): World Circuit
Продолжительность: 00:38:13
Наличие сканов в содержимом раздачи: Только обложка альбома
Контейнер: FLAC (*.flac)
Тип рипа: tracks
Разрядность: 24/96
Формат: PCM
Количество каналов: 2.0
Источник (релизер): highresaudio.com

Лог проверки качества
foobar2000 1.4.8 / Dynamic Range Meter 1.1.1
log date: 2020-04-03 11:28:41

--------------------------------------------------------------------------------
Analyzed: Tony Allen / Rejoice
--------------------------------------------------------------------------------

DR         Peak         RMS     Duration Track
--------------------------------------------------------------------------------
DR8       -0.40 dB   -10.10 dB      4:35 01-Robbers, Thugs and Muggers (O'Galajani)
DR9       -0.40 dB   -10.71 dB      5:27 02-Agbada Bougou
DR8       -0.40 dB   -10.83 dB      3:32 03-Coconut Jam
DR7       -0.40 dB    -8.84 dB      3:54 04-Never (Lagos Never Gonna Be the Same)
DR8       -0.40 dB   -10.31 dB      5:49 05-Slow Bones
DR8       -0.40 dB    -9.51 dB      5:41 06-Jabulani (Rejoice, Here Comes Tony)
DR8       -0.40 dB   -10.79 dB      4:40 07-Obama Shuffle Strut Blues
DR8       -0.40 dB    -9.87 dB      4:38 08-We've Landed
--------------------------------------------------------------------------------

Number of tracks:  8
Official DR value: DR8
Samplerate:        96000 Hz
Channels:          2
Bits per sample:   24
Bitrate:           2847 kbps
Codec:             FLAC
================================================================================
Any questions - support@pro-jazz.com. Есть вопросы - support@pro-jazz.com
11:53
264
Нет комментариев. Ваш будет первым!