Вы используете незарегистрированную версию компонента "Вкладки"!

Поиск

2020 Kurt Elling - Secrets Are the Best Stories {Edition} [24-96]

2020 Kurt Elling - Secrets Are the Best Stories {Edition} [24-96]
Стили:
Битрейт аудио:
lossless
Доп. инфо:

Формат записи/Источник записи: [TR24][OF]
Наличие водяных знаков: Нет
Год издания: 2020
Издатель (лейбл): Edition Records
Продолжительность: 00:53:30
Наличие сканов в содержимом раздачи: Только обложка альбома
Контейнер: FLAC (*.flac)
Тип рипа: tracks
Разрядность: 24/96
Формат: PCM
Количество каналов: 2.0
Источник (релизер): qobuz.com

Лог проверки качества
foobar2000 1.4.8 / Dynamic Range Meter 1.1.1
log date: 2020-04-03 17:19:30

--------------------------------------------------------------------------------
Analyzed: Kurt Elling / Secrets Are the Best Stories
--------------------------------------------------------------------------------

DR         Peak         RMS     Duration Track
--------------------------------------------------------------------------------
DR12      -1.42 dB   -16.69 dB      2:43 01-The Fanfold Hawk (For Franz Wright)
DR7       -1.40 dB   -10.43 dB      5:07 02-A Certain Continuum
DR9       -1.41 dB   -13.38 dB      5:28 03-Stays
DR8       -1.41 dB   -12.47 dB      6:22 04-Gratitude (For Robert Bly)
DR12      -1.42 dB   -17.20 dB      5:05 05-Stage I
DR6       -1.41 dB   -10.63 dB      9:32 06-Beloved (For Toni Morrison)
DR12      -1.42 dB   -19.14 dB      4:26 07-Stages II, III
DR10      -1.42 dB   -15.40 dB      4:56 08-Song of the Rio Grande (For Oscar and Valeria Martinez-Ramirez)
DR11      -1.42 dB   -15.55 dB      3:20 09-Rabo de Nube
DR9       -1.41 dB   -12.78 dB      5:01 10-Esperanto
DR11      -2.92 dB   -18.39 dB      1:33 11-Epílogo
--------------------------------------------------------------------------------

Number of tracks:  11
Official DR value: DR10
Samplerate:        96000 Hz
Channels:          2
Bits per sample:   24
Bitrate:           2257 kbps
Codec:             FLAC
================================================================================
Any questions - support@pro-jazz.com. Есть вопросы - support@pro-jazz.com
12:07
229
Нет комментариев. Ваш будет первым!