Вы используете незарегистрированную версию компонента "Вкладки"!

Поиск

2020 Aka Moon – Opus 111 {Outhere} [24-44,1]

2020 Aka Moon – Opus 111 {Outhere} [24-44,1]
Битрейт аудио:
lossless
Доп. инфо:

Формат записи/Источник записи: [TR24][OF]
Наличие водяных знаков: Нет
Год издания: 2020
Издатель (лейбл): Outhere
Продолжительность: 01:13:00
Наличие сканов в содержимом раздачи: Буклет PDF
Источник: qobuz
Контейнер: FLAC (*.flac)
Тип рипа: tracks
Разрядность: 24/44,1
Формат: PCM
Количество каналов: 2.0

Лог проверки качества
foobar2000 1.3.16 / Dynamic Range Meter 1.1.1
log date: 2020-04-03 12:51:25

––––––––––––––––––––––––––––––––––––––––
Analyzed: Aka Moon / Opus 111 (1-10)
Fabian Fiorini / Opus 111 (11)
João Barradas / Opus 111 (12)
––––––––––––––––––––––––––––––––––––––––

DR Peak RMS Duration Track
––––––––––––––––––––––––––––––––––––––––
DR7 -1.01 dB -10.57 dB 4:24 01-Opening 1.1.1
DR7 -1.01 dB -9.82 dB 10:35 02-Chindila
DR7 -1.01 dB -10.57 dB 5:47 03-Sonate 32
DR8 -1.01 dB -9.79 dB 7:48 04-Bee Is Black
DR8 -1.01 dB -10.24 dB 7:31 06-The Melancholia of L.
DR8 -1.01 dB -10.22 dB 5:27 07-She Talks to Beethoven
DR7 -1.01 dB -9.22 dB 4:52 08-Watumbu
DR8 -1.01 dB -9.53 dB 6:38 09-Beyond Lands
DR8 -1.01 dB -10.00 dB 6:28 10-The Black Spaniard
DR8 -1.01 dB -10.26 dB 3:33 11-Mr Joy
DR7 -1.01 dB -12.05 dB 6:09 12-Towards the Stars with Ludwig
DR10 -1.01 dB -13.31 dB 3:47 05-Lichnowsky Cadenza
––––––––––––––––––––––––––––––––––––––––

Number of tracks: 12
Official DR value: DR8

Samplerate: 44100 Hz
Channels: 2
Bits per sample: 24
Bitrate: 1248 kbps
Codec: FLAC
================================================================================
Any questions - support@pro-jazz.com. Есть вопросы - support@pro-jazz.com
12:25
326
Нет комментариев. Ваш будет первым!