Поиск

1982 Flim & The BB's - Tricycle (2020) {DMP} [24-88,2]

1982 Flim & The BB's - Tricycle (2020) {DMP} [24-88,2]
Стили:
Битрейт аудио:
lossless
Треклист:

01. Tricycle (4:44)
02. Cakewalk (6:39)
03. Lunch Hour Wedding March (6:08)
04. Sweet Winds of Change (5:20)
05. Tell Me (6:17)
06. Thunder and Birdies (5:12)
07. High Wire (5:30)
08. The (3:58)
09. Sam's Samba (6:06)
10. Eden (6:21)

Состав:
  • Billy Barber, piano, Fender Rhodes, Prophet, Moog
  • Bill Berg, drums, percussion
  • Flim Johnson, bass, 5 String
  • Dick Oatts, alto saxophone, soprano saxophone, tenor saxophone, flute, clarinet
Доп. инфо:

Формат записи/Источник записи: [TR24][OF]
Наличие водяных знаков: Нет
Издание: Remastered
Год издания/переиздания диска: 1982/2020
Издатель (лейбл): DMP
Продолжительность: 00:56:10
Наличие сканов в содержимом раздачи: Буклет PDF
Контейнер: FLAC (*.flac)
Тип рипа: tracks
Разрядность: 24/88,2
Формат: PCM
Количество каналов: 2.0
Источник (релизер): hdtracks.co.uk

Лог проверки качества
foobar2000 1.5.3 / Dynamic Range Meter 1.1.1
log date: 2020-04-02 06:12:27

--------------------------------------------------------------------------------
Analyzed: Flim & The BB's / Tricycle [Remastered]
--------------------------------------------------------------------------------

DR         Peak         RMS     Duration Track
--------------------------------------------------------------------------------
DR19      -2.24 dB   -27.37 dB      4:44 01-Tricycle
DR19      -0.60 dB   -25.16 dB      6:39 02-Cakewalk
DR16      -4.38 dB   -25.13 dB      6:08 03-Lunch Hour Wedding March
DR19      -4.53 dB   -29.18 dB      5:20 04-Sweet Winds of Change
DR22      -2.15 dB   -30.51 dB      6:17 05-Tell Me
DR18      -1.99 dB   -25.14 dB      5:12 06-Thunder and Birdies
DR13     -16.44 dB   -35.14 dB      5:30 07-High Wire
DR18      -1.83 dB   -24.90 dB      3:58 08-The
DR20      -1.52 dB   -26.65 dB      6:06 09-Sam's Samba
DR17      -2.39 dB   -25.84 dB      6:21 10-Eden
--------------------------------------------------------------------------------

Number of tracks:  10
Official DR value: DR18
Samplerate:        88200 Hz
Channels:          2
Bits per sample:   24
Bitrate:           2425 kbps
Codec:             FLAC
================================================================================
По всем вопросам пишите личное сообщение пользователю M0p94ok.
10:39
449
Нет комментариев. Ваш будет первым!