Поиск

2020 Tolga Şanlı - Vouves {Stüdyo Arı} [24-88.2]

2020 Tolga Şanlı - Vouves {Stüdyo Arı} [24-88.2]
Стили:
Дата издания диска:
13 марта 2020
Носитель:
WEB
Формат:
PCM
Тип рипа:
tracks
Контейнер:
FLAC (*.flac)
Количество каналов:
2.0
Разрядность/ЧД:
24/88,2
Битрейт аудио:
lossless
Наличие сканов:
только обложка

Треклист:

1. 7 (03:48)
2. Hayvore (04:25)
3. Revival (05:19)
4. Vouves (06:02)
5. Black Sand (04:41)
6. Moorland (05:13)
7. Sirius (06:33)

Состав:
  • Tolga Şanlı — Elektrik Gitar
  • Nevzat Yılmaz — Tuşlu Çalgılar
  • Deniz Beydili — Bas Gitar (1, 2, 4, 5, 6)
  • Zafer Şanlı — Bas Gitar (3), Vokal (7)
  • Cengiz Tural — Davul (1, 2, 4, 5, 6)
  • Cenk Erdoğan — Elektrik Gitar (3)
  • Orçun Saçaroğlu
  • Ahmet Demirkol
  • Ertuğrul Kırçın
  • Abbas Karacan
  • Ege Cengiz
  • Recep Özçakır
  • Burak Sarıkahya
Лог проверки качества
foobar2000 1.6.10 / Dynamic Range Meter 1.1.1
log date: 2023-01-25 01:46:30

--------------------------------------------------------------------------------
Analyzed: Tolga Şanlı / Vouves
--------------------------------------------------------------------------------

DR         Peak         RMS     Duration Track
--------------------------------------------------------------------------------
DR11      -1.00 dB   -13.40 dB      3:49 01-7
DR10      -1.00 dB   -12.51 dB      4:25 02-Hayvore
DR10      -1.00 dB   -12.93 dB      5:19 03-Revival
DR10      -1.00 dB   -12.41 dB      6:03 04-Vouves
DR11      -1.00 dB   -13.30 dB      4:41 05-Black Sand
DR10      -1.00 dB   -13.09 dB      5:14 06-Moorland
DR11      -1.00 dB   -13.37 dB      6:34 07-Sirius
--------------------------------------------------------------------------------

Number of tracks:  7
Official DR value: DR11

Samplerate:        88200 Hz
Channels:          2
Bits per sample:   24
Bitrate:           2596 kbps
Codec:             FLAC
================================================================================
Download available for power users only.
01:56
40
Нет комментариев. Ваш будет первым!