Поиск

1981 Barre Phillips - Music By... (2018) {ECM} [24-96]

1981 Barre Phillips - Music By... (2018) {ECM} [24-96]
Стили:
Дата записи диска:
май 1980
Место записи:
Tonstudio Bauer, Ludwigsburg
Дата издания диска:
1 марта 1981
Издатель (лейбл):
Номер по каталогу:
1178
Разрядность/ЧД:
24/96
Битрейт аудио:
lossless

Треклист:

1. Twitter  06:22
2. Angleswaite  08:51
3. Pirthrite  05:31
4. Longview  07:37
5. Entai  03:03
6. Double Treble  03:05
7. Elvid Kursong  06:47

Состав:
  • Barre Phillips bass
  • Aina Kemanis voice
  • John Surman soprano and baritone saxophones, bass clarinet
  • Herve Bourde alto and tenor saxophones, flutes
  • Claudia Phillips voice
  • Pierre Favre drums, percussion
  • Recorded May 1980 at Tonstudio Bauer, Ludwigsburg
  • Engineer: Martin Wieland
  • Produced by Manfred Eicher
Доп. инфо:

Задолго до того, как Twitter стал феноменом микроблогов, именно так называлась первая доля на этой вышедшей из печати жемчужине от Барре Филлипса. К счастью, в ней нет ничего микро. Движимая синкопированием ударных и бас-кларнета, эта притягивающая внимание вспышка виртуозности знакомит нас с кипучей акробатикой дочери Клаудии Филлипс, вокалистки, чья карьера певицы нашла свою нишу во Франции в 80-х годах. Ее иногда маниакальные инстинкты сменяются потоком Айны Кеманис, голосом Journal Violone II. Вместе они образуют магический треугольник с извилистыми линиями Джона Сурмана. С таким буйством и глоттальной глубиной, какие демонстрирует здесь Клаудия, едва ли можно удержать внимание на чем-либо, кроме ее блеска. Ее похожие на сирену веретена оказываются направляющей силой в более свободно импровизированной "Angleswaite" и, вместе с Кеманисом, прослеживают плавные дуги в "Elvid Kursong" и падают как споры в "Pirthrite". Последняя представляет собой причудливый боевой экскурс, который одновременно является маршем и реквиемом, что еще больше подчеркивается жидким альтом Эрве Бурде. В "Лонгвью" эти грани сжимаются в единую плоскость. Здесь Клаудия оживает в бурлящей заикающейся партии, которую вскоре обгоняет тенор Бурде, расположенный слева от центра. "Entai" и "Double Treble" звучат как бас и кларнет на коньках, борющиеся за равновесие на искривленной пластинке, сжимая альбом до более грубых шифров.

Это еще одна захватывающая ячейка в витражном окне, которое представляет собой Барре Филипс, запечатлевший как трепет и боль модернизма, так и те тихие моменты, немногочисленные и далекие друг от друга, когда душа целует лоб отчуждения. Содержание оживляет бесстрастное участие, резвящееся на пересечении речи и песни. Будучи давним поклонником группы Cocteau Twins и голоса Элизабет Фрейзер, который движет ими, я иногда задавался вопросом, как бы она могла звучать, если бы записала альбом ECM. С Music By... мы начинаем приближаться к одному из возможных ответов.

https://ecmreviews.com/2011/10/09/music-by/

Лог проверки качества
foobar2000 1.3.16 / Dynamic Range Meter 1.1.1
log date: 2018-08-31 14:51:49

--------------------------------------------------------------------------------
Analyzed: Barre Phillips / Music By...
--------------------------------------------------------------------------------

DR         Peak         RMS     Duration Track
--------------------------------------------------------------------------------
DR11      -2.31 dB   -17.36 dB      6:23 01-Twitter
DR11      -1.21 dB   -16.58 dB      8:52 02-Angleswaite
DR11      -2.08 dB   -17.36 dB      5:32 03-Pirthrite
DR11      -2.07 dB   -15.96 dB      7:38 04-Longview
DR12      -3.61 dB   -21.23 dB      3:03 05-Entai
DR12      -4.38 dB   -21.30 dB      3:05 06-Double Treble
DR11      -1.23 dB   -15.21 dB      6:47 07-Elvid Kursong
--------------------------------------------------------------------------------

Number of tracks:  7
Official DR value: DR11

Samplerate:        96000 Hz
Channels:          2
Bits per sample:   24
Bitrate:           3098 kbps
Codec:             FLAC
================================================================================
Download available for power users only.
18:22
39
Нет комментариев. Ваш будет первым!