Поиск

2009 VA - Jazz On A Summer's Day (Highlights From Soundtrack) (2020) {RevOla} [24-96]

2009 VA - Jazz On A Summer's Day (Highlights From Soundtrack) (2020) {RevOla} [24-96]
Стили:
Дата переиздания диска:
13 марта 2020
Издатель (лейбл):
Носитель:
WEB
Формат:
PCM
Тип рипа:
tracks
Контейнер:
FLAC (*.flac)
Количество каналов:
2.0
Разрядность/ЧД:
24/96
Битрейт аудио:
lossless
Наличие сканов:
только обложка

1. Train And The River (Remastered)
THE JIMMY GIUFFRE TRIO
04:33
2. Blue Monk (Remastered)
Thelonious Monk
02:53
3. Loose Walk (Remastered)
Sonny Stitt
02:57
4. Sweet Georgia Brown (Remastered)
Anita O'Day
04:27
5. Tea For Two (Remastered)
Anita O'Day
03:46
6. All Of Me (Remastered)
Dinah Washington
04:13
7. Catch As Catch Can (Remastered)
Gerry Mulligan
03:49
8. I Ain't Mad At You Pretty Baby (Remastered)
Big Maybelle
03:41
9. Sweet Little Sixteen (Remastered)
Chuck Berry
04:00
10. Blue Sands (Remastered)
The Chico Hamilton Quintet
05:45
11. Up A Lazy River (Remastered)
Louis Armstrong
03:06
12. Tiger Rag (Remastered)
Louis Armstrong
02:11
13. Rockin' Chair (Remastered)
Louis Armstrong
03:26
14. When The Saints Go Marching In (Remastered)
Louis Armstrong
01:48
15. Medley: Walk All Over God's Heaven/Didn't It Rain? (Remastered)
Mahalia Jackson
06:37
16. The Lord's Prayer (Remastered)
Mahalia Jackson
03:31

Лог проверки качества
foobar2000 1.6.10 / Dynamic Range Meter 1.1.1
log date: 2023-01-25 11:24:05

--------------------------------------------------------------------------------
Analyzed: Anita O'Day / Jazz On A Summer's Day (Highlights From The Original Film Soundtrack) (1-2)
          Big Maybelle / Jazz On A Summer's Day (Highlights From The Original Film Soundtrack) (3)
          Chuck Berry / Jazz On A Summer's Day (Highlights From The Original Film Soundtrack) (4)
          Dinah Washington / Jazz On A Summer's Day (Highlights From The Original Film Soundtrack) (5)
          Gerry Mulligan / Jazz On A Summer's Day (Highlights From The Original Film Soundtrack) (6)
          Louis Armstrong / Jazz On A Summer's Day (Highlights From The Original Film Soundtrack) (7-10)
          Mahalia Jackson / Jazz On A Summer's Day (Highlights From The Original Film Soundtrack) (11-12)
          Sonny Stitt / Jazz On A Summer's Day (Highlights From The Original Film Soundtrack) (13)
          The Chico Hamilton Quintet / Jazz On A Summer's Day (Highlights From The Original Film Soundtrack) (14)
          The Jimmy Giuffre Trio / Jazz On A Summer's Day (Highlights From The Original Film Soundtrack) (15)
          Thelonious Monk / Jazz On A Summer's Day (Highlights From The Original Film Soundtrack) (16)
--------------------------------------------------------------------------------

DR         Peak         RMS     Duration Track
--------------------------------------------------------------------------------
DR12      -0.07 dB   -15.59 dB      4:28 04-Sweet Georgia Brown (Remastered)
DR11      -0.08 dB   -15.42 dB      3:46 05-Tea For Two (Remastered)
DR11      -0.08 dB   -13.39 dB      3:42 08-I Ain't Mad At You Pretty Baby (Remastered)
DR10      -0.09 dB   -12.78 dB      4:01 09-Sweet Little Sixteen (Remastered)
DR11      -0.07 dB   -14.70 dB      4:13 06-All Of Me (Remastered)
DR12      -0.08 dB   -15.08 dB      3:49 07-Catch As Catch Can (Remastered)
DR14      -0.09 dB   -17.84 dB      3:07 11-Up A Lazy River (Remastered)
DR12      -0.08 dB   -14.83 dB      2:11 12-Tiger Rag (Remastered)
DR14      -0.08 dB   -18.41 dB      3:27 13-Rockin' Chair (Remastered)
DR11      -0.08 dB   -14.34 dB      1:49 14-When The Saints Go Marching In (Remastered)
DR10      -0.07 dB   -13.54 dB      6:37 15-Medley: Walk All Over God's Heaven/Didn't It Rain? (Remastered)
DR9       -0.07 dB   -16.26 dB      3:32 16-The Lord's Prayer (Remastered)
DR10      -0.07 dB   -12.69 dB      2:58 03-Loose Walk (Remastered)
DR10      -0.08 dB   -15.81 dB      5:45 10-Blue Sands (Remastered)
DR10      -0.08 dB   -13.92 dB      4:33 01-Train And The River (Remastered)
DR12      -0.08 dB   -14.74 dB      2:53 02-Blue Monk (Remastered)
--------------------------------------------------------------------------------

Number of tracks:  16
Official DR value: DR11

Samplerate:        96000 Hz
Channels:          2
Bits per sample:   24
Bitrate:           2253 kbps
Codec:             FLAC
================================================================================
Приватный:
Нет (DHT включён)
Размер:
1.02 Гб (1,094,770,485 байт) » файлов: 19
Участники:
5 раздают, 0 качают (5 участников всего)
Внешние участники:
--- [ Обновить ]
12:31
317
Нет комментариев. Ваш будет первым!