Поиск

2020 Niels "Flipper" Stuart, Jakob Roland, Henrik Holst Hansen - Moonglow {HHH Music} [24-44.1]

2020 Niels "Flipper" Stuart, Jakob Roland, Henrik Holst Hansen - Moonglow {HHH Music} [24-44.1]
Дата издания диска:
13 марта 2022
Носитель:
WEB
Формат:
PCM
Тип рипа:
tracks
Контейнер:
FLAC (*.flac)
Количество каналов:
2.0
Разрядность/ЧД:
24/44,1
Битрейт аудио:
lossless
Наличие сканов:
только обложка

1. Moonglow
06:29
2. Don't Think Twice It's Alright
05:22
3. (Back Home Again in) Indiana
04:06
4. Easy Living
04:49
5. I've Told Every Little Star
05:43
6. Here, There and Everywhere
06:33
7. All Gods Chillun' Got Rhythm
03:48
8. Meditation
06:27
9. Tea for Two
06:54
10. The Midnight Sun Will Never Set
02:15

Состав:
  • Niels "Flipper" Stuart
  • Jakob Roland
  • Henrik Holst Hansen
Лог проверки качества
foobar2000 1.6.10 / Dynamic Range Meter 1.1.1
log date: 2023-01-25 12:51:19

--------------------------------------------------------------------------------
Analyzed: Niels Flipper Stuart, Jakob Roland, Henrik Holst Hansen / Moonglow
--------------------------------------------------------------------------------

DR         Peak         RMS     Duration Track
--------------------------------------------------------------------------------
DR11      -0.80 dB   -14.32 dB      6:30 01-Moonglow
DR11      -0.80 dB   -14.44 dB      5:22 02-Don't Think Twice It's Alright
DR10      -0.81 dB   -12.92 dB      4:07 03-(Back Home Again in) Indiana
DR13      -0.89 dB   -16.67 dB      4:49 04-Easy Living
DR11      -0.80 dB   -13.69 dB      5:43 05-I've Told Every Little Star
DR11      -0.80 dB   -13.63 dB      6:34 06-Here, There and Everywhere
DR11      -0.80 dB   -13.96 dB      3:48 07-All Gods Chillun' Got Rhythm
DR10      -0.90 dB   -14.34 dB      6:28 08-Meditation
DR11      -0.80 dB   -13.58 dB      6:55 09-Tea for Two
DR13      -0.80 dB   -17.46 dB      2:16 10-The Midnight Sun Will Never Set
--------------------------------------------------------------------------------

Number of tracks:  10
Official DR value: DR11

Samplerate:        44100 Hz
Channels:          2
Bits per sample:   24
Bitrate:           1403 kbps
Codec:             FLAC
================================================================================
Приватный:
Нет (DHT включён)
Размер:
562.68 Мб (590,008,266 байт) » файлов: 11
Участники:
0 раздают, 0 качают (0 участников всего)
Внешние участники:
--- [ Обновить ]
13:55
296
Нет комментариев. Ваш будет первым!