Вы используете незарегистрированную версию компонента "Вкладки"!

Поиск

2020 Tim Allhoff - Sixteen Pieces for Piano {OKeh} [24-48]

2020 Tim Allhoff - Sixteen Pieces for Piano {OKeh} [24-48]
Издатель (лейбл):
Битрейт аудио:
lossless
Доп. инфо:

Формат записи/Источник записи: [TR24][OF]
Наличие водяных знаков: Нет
Год издания/переиздания диска: 2020
Продолжительность: 00:52:25
Наличие сканов в содержимом раздачи: Только обложка альбома
Источник (релизер): highresaudio

Контейнер: FLAC (*.flac)
Тип рипа: tracks
Разрядность: 24/48
Формат: PCM
Количество каналов: 2.0
Доп. информация: http://timallhoff.com/

Лог проверки качества
foobar2000 1.3.7 / Dynamic Range Meter 1.1.1
log date: 2020-01-30 22:29:21

--------------------------------------------------------------------------------
Analyzed: Tim Allhoff / Sixteen Pieces for Piano
--------------------------------------------------------------------------------

DR         Peak         RMS     Duration Track
--------------------------------------------------------------------------------
DR11      -3.76 dB   -19.62 dB      3:53 01-Sehnsucht
DR12      -1.02 dB   -18.98 dB      2:58 02-Smilla
DR11      -2.74 dB   -18.24 dB      2:48 03-Daenerys
DR10      -3.37 dB   -17.98 dB      2:20 04-Theresa
DR13      -5.06 dB   -24.73 dB      3:19 05-Erhebung
DR10      -3.47 dB   -15.99 dB      2:57 06-Capoliveri
DR11      -5.96 dB   -21.20 dB      2:55 07-Stillness
DR12      -2.65 dB   -19.21 dB      2:40 08-Choral
DR11      -3.74 dB   -19.71 dB      2:35 09-Claire
DR14      -4.54 dB   -24.11 dB      1:59 10-Johann
DR12      -2.02 dB   -20.07 dB      3:56 11-Der Fuchs
DR12      -3.27 dB   -21.52 dB      4:35 12-Nimrod (Piano Version)
DR12      -3.05 dB   -20.99 dB      3:43 13-Staubspieler
DR11      -4.20 dB   -21.57 dB      2:09 14-Aria
DR10      -1.96 dB   -18.17 dB      2:14 15-Nachspiel
DR12      -1.02 dB   -18.25 dB      7:29 16-Fix You
--------------------------------------------------------------------------------

Number of tracks:  16
Official DR value: DR11

Samplerate:        48000 Hz
Channels:          2
Bits per sample:   24
Bitrate:           1264 kbps
Codec:             FLAC
================================================================================
Any questions - support@pro-jazz.com. Есть вопросы - support@pro-jazz.com
01:11
288
Нет комментариев. Ваш будет первым!