Вы используете незарегистрированную версию компонента "Вкладки"!

Поиск

2019 Clohesy/Holoubek's Cactus - Live @ Coma {Club COMA} [24-44,1]

2019 Clohesy/Holoubek's Cactus - Live @ Coma {Club COMA} [24-44,1]
Стили:
Дата записи диска:
23 июля 2018
Место записи:
Coma Club, Adelaide, Australia
Дата издания диска:
4 апреля 2019
Битрейт аудио:
lossless
Доп. инфо:

Формат записи/Источник записи: [TR24][OF]
Год издания: 2018
Издатель (лейбл): Club COMA
Продолжительность: 1:17:09
Наличие сканов в содержимом раздачи: Front

Контейнер: FLAC (*.flac)
Тип рипа: tracks
Разрядность: 24/44
Формат: LPCM
Количество каналов: 2.0

Источник (релизер): Bandcamp

Лог проверки качества
foobar2000 1.3.3 / Dynamic Range Meter 1.1.1
log date: 2020-04-27 13:53:20

--------------------------------------------------------------------------------
Analyzed: Cactus / Clohesy/Holoubek's Cactus @ COMA 2018 04 23
--------------------------------------------------------------------------------

DR         Peak         RMS     Duration Track
--------------------------------------------------------------------------------
DR10      -0.97 dB   -13.85 dB      5:42 01-Ninety Seven
DR13      -1.01 dB   -17.59 dB      6:44 02-Illumination
DR11      -0.94 dB   -13.94 dB      6:18 03-Cheif's Fog
DR12      -0.90 dB   -16.09 dB      8:40 04-Snack Bar
DR11      -0.95 dB   -17.23 dB     11:09 05-Zygote
DR10      -0.95 dB   -13.62 dB      6:54 06-Sideswipe
DR11      -0.94 dB   -15.32 dB     11:49 07-The Asset
DR11      -0.98 dB   -17.24 dB     10:50 08-Goodness Whispers
DR10      -0.96 dB   -14.06 dB      9:02 09-Evil Shouts
--------------------------------------------------------------------------------

Number of tracks:  9
Official DR value: DR11

Samplerate:        44100 Hz
Channels:          2
Bits per sample:   24
Bitrate:           1476 kbps
Codec:             FLAC
================================================================================
Any questions - support@pro-jazz.com. Есть вопросы - support@pro-jazz.com
08:02
267
Нет комментариев. Ваш будет первым!